Nasz serwis internetowy oraz podmioty z nim współpracujące takie jak reklamodawcy, firmy badające rynek, dostawcy usług oraz treści, korzystają z plików Cookies zapisywanych na Twoim urządzeniu w celach identyfikacyjnych, reklamowych oraz statystycznych. Dzięki temu możemy między innymi dostosować wygląd strony do indywidualnych potrzeb użytkowników. W przeglądarce internetowej możesz zmienić ustawienia dotyczące Cookies. Instrukcje zmiany ustawień dla najpopularniejszych przeglądarek znajdziesz tutaj: Chrome, Firefox, Internet Explorer, Opera i Safari. Jeżeli nie wyrażasz zgody na wykorzystywanie przez nas mechanizmu Cookies, wyłącz ich obsługę w ustawieniach swojej przeglądarki.
Więcej informacji możesz znaleźć w Informacje o plikach cookies.
Haszkod.pl - Strona główna
szukaj
| |
Jesteś w trakcie przeglądania haszkodu z archiwum. Poniższy haszkod jest nieaktualny i nie zostanie rozpoznany przez program.


Karbala [DVDRip] [2015][PL]

Karbala [DVDRip] [2015][PL]

Pokaż hashcode

Zaloguj się!

Dopiero po utworzeniu konta w serwisie, możliwe jest korzystanie z zawartości.

Rejestracja!
Dodał: kamilxeus
Należy pobrać przez: MailShare
Kategoria: Archiwum Rozmiar: 1,33 GB
Podkategoria: Archiwum Pobrań: 303
Data dodania: 15-08-2016 13:03 Data premiery: 11 września 2015



To były cztery dni piekła… Irackie miasto Karbala. 2004 rok, środek wojny w Zatoce Perskiej. Zaczyna się ważne muzułmańskie święto Aszura. Bojówki Al-Kaidy i As-Sadry atakują miejscowy ratusz City Hall – siedzibę lojalnych władz i policji, w którym przetrzymywani są też aresztowani terroryści. Ich kolejne wściekłe ataki odpiera osiemdziesięciu polskich i bułgarskich żołnierzy, którzy mają zapasy jedzenia oraz broni jedynie na 24 godziny walk. Tracą kontakt z bazą, nie wiadomo, kiedy dotrze wsparcie. Wystrzelawszy niemal całą amunicję, na racjach głodowych, zabijają ponad stu napastników, nie tracąc ani jednego żołnierza. Wygrywają największą polską bitwę od czasów II wojny światowej.


Video
ID : 0
Format : MPEG-4 Visual
Format profile : [email protected]
Format settings, BVOP : Yes
Format settings, QPel : No
Format settings, GMC : No warppoints
Format settings, Matrix : Default (H.263)
Codec ID : XVID
Codec ID/Hint : XviD
Duration : 1 h 50 min
Bit rate : 1 500 kb/s
Width : 720 pixels
Height : 480 pixels
Display aspect ratio : 3:2
Frame rate : 29.970 FPS
Standard : NTSC
Color space : YUV
Chroma subsampling : 4:2:0
Bit depth : 8 bits
Scan type : Progressive
Compression mode : Lossy
Bits/(Pixel*Frame) : 0.145
Stream size : 1.16 GiB (91%)

Audio
ID : 1
Format : MPEG Audio
Format version : Version 1
Format profile : Layer 3
Mode : Joint stereo
Mode extension : MS Stereo
Codec ID : 55
Codec ID/Hint : MP3
Duration : 1 h 50 min
Bit rate mode : Constant
Bit rate : 128 kb/s
Channel(s) : 2 channels
Sampling rate : 44.1 kHz
Compression mode : Lossy
Stream size : 101 MiB (8%)
Alignment : Aligned on interleaves
Interleave, duration : 26 ms (0.78 video frame)
Writing library : LAME3.97








ostatnia modyfikacja: 15 sierpnia 2016, 12:57 (center // edited by Taz9)
Inne podobne haszkody dostępne w serwisie:
NazwaKategoriaSprawnośćRozmiarDodano
Karbala [BDRip] [2015][PL]Filmy96%1,89 GB23-11-2016
Pi [DVDRip] [1998][Lektor PL]Archiwum88%700 MB13-01-2013
Ki [DVDRip] [2011][PL]Filmy97%1,36 GB31-03-2012
21 [DVDRip] [2008][ENG]Filmy50%700 MB24-01-2010
9 [DVDRip] [2009][ENG]Filmy50%705 MB27-11-2009
Najwyżej ocenionione komentarze:
wielkie dzięki

1

1 0

15.08.2016
Komentarze użytkowników:
wielkie dzięki

1

1 0

15.08.2016
nie wiem czemu , ale nie mogę wypakować drugiej części może jakaś podpowiedz??

0

1 0

18.08.2016
jakie jest haslo ?

0

1 0

18.08.2016
kostek85 hasło to zawsze www.haszkod.pl

0

1 0

18.08.2016
vader , może spróbuj jeszcze raz pobrać part 2, lub użyj danych naprawczych.

0

1 0

18.08.2016
hi holere mi to nie chodzi caly czas jakies ruskie literki mi wyskakują przy sciąganiu

0

1 0

20.08.2016
Nie działa nie może wypakować parta 2

0

1 0

28.08.2016
Kmicic37, oceniamy to czy się pobrało a nie czy działa, dodatkowo masz dane naprawcze więc wystarczy umieć naprawić archiwum.

0

1 0

28.08.2016
Ok wszystko sprawne

0

1 0

28.08.2016
nie wiem jak Wam ale mi nie działa. skrzynki padły

0

1 0

12.11.2016
Żaden z plików nie znajduje się na serwerze. Hashcody są własnością użytkowników. Administrator serwisu nie może ponieść konsekwencji za to co użytkownicy wstawiają lub za to co czynią na stronie.
Nie możesz używać tego serwisu do rozpowszechniania lub ściągania materiałów do których nie masz odpowiednich praw lub licencji. Użytkownicy odpowiedzialni są za przestrzeganie tych zasad.