Nasz serwis internetowy oraz podmioty z nim współpracujące takie jak reklamodawcy, firmy badające rynek, dostawcy usług oraz treści, korzystają z plików Cookies zapisywanych na Twoim urządzeniu w celach identyfikacyjnych, reklamowych oraz statystycznych. Dzięki temu możemy między innymi dostosować wygląd strony do indywidualnych potrzeb użytkowników. W przeglądarce internetowej możesz zmienić ustawienia dotyczące Cookies. Instrukcje zmiany ustawień dla najpopularniejszych przeglądarek znajdziesz tutaj: Chrome, Firefox, Internet Explorer, Opera i Safari. Jeżeli nie wyrażasz zgody na wykorzystywanie przez nas mechanizmu Cookies, wyłącz ich obsługę w ustawieniach swojej przeglądarki.
Więcej informacji możesz znaleźć w Informacje o plikach cookies.
Haszkod.pl - Strona główna
szukaj
| |


Agenci NCIS [Sezon 9][2011][Lektor PL]

Agenci NCIS [Sezon 9][2011][Lektor PL]
sprawność: 88%
Zdobądź lepszą rangę,
aby oceniać haszkody.

Pokaż hashcode

Zaloguj się!

Dopiero po utworzeniu konta w serwisie, możliwe jest korzystanie z zawartości.

Rejestracja!
Dodał: D_M
Należy pobrać przez: MailDownloader
Kategoria: Filmy Rozmiar: 8,31 GB
Podkategoria: Sezony Pobrań: 6
Data dodania: 18-05-2017 22:32 Data premiery: 20 września 2011





Kompresja: WinRAR 5+

Hasło pobierania i archiwum: www.haszkod.pl



Opis:
Grupa pracowników rządowej agencji NCIS rozwiązuje trudne zagadki kryminalne związane z Marynarką Wojenną. Dowodzi nią działający według własnych zasad Jethro Gibbs.




Video
Format : AVI
Duration : 42 min 10 s
Bit rate : 1 033 kb/s
Width : 624 pixels
Height : 352 pixels
Display aspect ratio : 16:9
Frame rate : 25.000 FPS
Stream size : 311 MiB (88%)

Audio #1
Format : MP3
Nominal bit rate : 128 kb/s
Channel(s) : 2 channels
Stream size : 38.6 MiB (11%)









ostatnia modyfikacja: 19 maja 2017, 03:20 (//)
Inne podobne haszkody dostępne w serwisie:
NazwaKategoriaSprawnośćRozmiarDodano
Agenci NCIS [Sezon 13][2015][Lektor PL]Filmy84%13,20 GB22-05-2017
Agenci NCIS [Sezon 6][2003][Lektor PL]Filmy75%9,36 GB27-09-2013
Agenci NCIS [Sezon 10][2012][Lektor PL]Filmy84%9,39 GB19-05-2017
Agenci NCIS [Sezon 1][2003][Lektor PL]Filmy88%8,52 GB09-05-2017
Agenci NCIS [Sezon 2][2004][Lektor PL]Filmy88%8,03 GB11-05-2017
Dodaj komentarz:
Zasady pisania komentarzy w serwisie Haszkod.pl :
  • Zakaz podawania adresów stron o podobnej tematyce.
  • Zakaz wklejania linków do alternatywnej metody ściągnięcia tej samej rzeczy.
  • Zakaz składania próśb o upload, jest do tego specjalny dział.
  • Zakaz wklejania hashcodów w treści komentarzy.
Wypowiedzi w komentarzach powinny być formułowane w sposób uprzejmy, z poszanowaniem innych użytkowników i ich stanowisk.

Autor:
Treść:

+ - | b u i

Możesz jeszcze wpisać: znaków.

Żaden z plików nie znajduje się na serwerze. Hashcody są własnością użytkowników. Administrator serwisu nie może ponieść konsekwencji za to co użytkownicy wstawiają lub za to co czynią na stronie.
Nie możesz używać tego serwisu do rozpowszechniania lub ściągania materiałów do których nie masz odpowiednich praw lub licencji. Użytkownicy odpowiedzialni są za przestrzeganie tych zasad.