Nasz serwis internetowy oraz podmioty z nim współpracujące takie jak reklamodawcy, firmy badające rynek, dostawcy usług oraz treści, korzystają z plików Cookies zapisywanych na Twoim urządzeniu w celach identyfikacyjnych, reklamowych oraz statystycznych. Dzięki temu możemy między innymi dostosować wygląd strony do indywidualnych potrzeb użytkowników. W przeglądarce internetowej możesz zmienić ustawienia dotyczące Cookies. Instrukcje zmiany ustawień dla najpopularniejszych przeglądarek znajdziesz tutaj: Chrome, Firefox, Internet Explorer, Opera i Safari. Jeżeli nie wyrażasz zgody na wykorzystywanie przez nas mechanizmu Cookies, wyłącz ich obsługę w ustawieniach swojej przeglądarki.
Więcej informacji możesz znaleźć w Informacje o plikach cookies.
Haszkod.pl - Strona główna
szukaj
| |

Czterdziestolatek - Wszystkie odcinki [1974-1977][DVDRip][PL]

Czterdziestolatek - Wszystkie odcinki [1974-1977][DVDRip][PL]
sprawność: 84%
Zdobądź lepszą rangę,
aby oceniać haszkody.

Pokaż hashcode

Zaloguj się!

Dopiero po utworzeniu konta w serwisie, możliwe jest korzystanie z zawartości.

Rejestracja!
Dodał: _RPK_
Należy pobrać przez: Slanter
Kategoria: Filmy Rozmiar: 8,67 GB
Podkategoria: Sezony Pobrań: 26
Data dodania: 21-08-2012 22:45







Serial zawiera 21 odcinków, średnio po 50 minut
Oto przykładowe screeny:










Parametry
Video
ID : 0
Format : MPEG-4 Visual
Format profile : Advanced Simple@L5
Format settings, BVOP : 1
Format settings, QPel : No
Format settings, GMC : No warppoints
Format settings, Matrix : Custom
Codec ID : XVID
Codec ID/Hint : XviD
Duration : 48mn 57s
Bit rate : 1 044 Kbps
Width : 512 pixels
Height : 384 pixels
Display aspect ratio : 4:3
Frame rate : 25.000 fps
Color space : YUV
Chroma subsampling : 4:2:0
Bit depth : 8 bits
Scan type : Progressive
Compression mode : Lossy
Bits/(Pixel*Frame) : 0.212
Stream size : 366 MiB (89%)
Writing library : XviD 1.2.0.dev47 (UTC 2006-11-01)

Audio
ID : 1
Format : MPEG Audio
Format version : Version 1
Format profile : Layer 3
Mode : Joint stereo
Mode extension : MS Stereo
Codec ID : 55
Codec ID/Hint : MP3
Duration : 48mn 57s
Bit rate mode : Variable
Bit rate : 116 Kbps
Nominal bit rate : 128 Kbps
Channel(s) : 2 channels
Sampling rate : 48.0 KHz
Compression mode : Lossy
Stream size : 40.6 MiB (10%)
Alignment : Aligned on interleaves
Interleave, duration : 24 ms (0.60 video frame)
Interleave, preload duration : 158 ms
Writing library : LAME3.97

Parametry każdego z odcinków są bardzo podobne, praktycznie się nie różnią











!!! Pliki trzymam na dysku tydzień od wstawienia.
Po upływie tego czasu nie naprawiam uploadów !!!




ostatnia modyfikacja: 22 sierpnia 2012, 00:35 (zmiana kategorii // edited by vasper)
Inne podobne haszkody dostępne w serwisie:
NazwaKategoriaSprawnośćRozmiarDodano
Alternatywy 4 [Wszystkie odcinki] [DVDRip][19..Filmy95%3,09 GB12-04-2012
Zaczarowany ołówek (34 odcinki) [1964 - 1977]..Filmy92%2,87 GB03-11-2012
Wakacje z Duchami [Wszystkie odcinki][DVDRip]..Filmy75%2,50 GB07-04-2012
Reksio - wszystkie odcinki [TVRip] [XviD] [D..Filmy80%4,42 GB19-03-2010
ALTERNATYWY 4 - Wszystkie odcinki [RMVB][1986..Filmy50%1,68 GB21-04-2013
Najwyżej ocenionione komentarze:
Komentarze użytkowników:
Zapraszam do pobierania.
W razie błędów PW.
Po pobraniu oceniajcie i komentujcie ! :)

-1

1 0

21.08.2012
Dodaj komentarz:
Zasady pisania komentarzy w serwisie Haszkod.pl :
  • Zakaz podawania adresów stron o podobnej tematyce.
  • Zakaz wklejania linków do alternatywnej metody ściągnięcia tej samej rzeczy.
  • Zakaz składania próśb o upload, jest do tego specjalny dział.
  • Zakaz wklejania hashcodów w treści komentarzy.
Wypowiedzi w komentarzach powinny być formułowane w sposób uprzejmy, z poszanowaniem innych użytkowników i ich stanowisk.

Autor:
Tresc:

+ - | b u i

Możesz jeszcze wpisać: znaków.

Żaden z plików nie znajduje się na serwerze. Hashcody są własnością użytkowników. Administrator serwisu nie może ponieść konsekwencji za to co użytkownicy wstawiają lub za to co czynią na stronie.
Nie możesz używać tego serwisu do rozpowszechniania lub ściągania materiałów do których nie masz odpowiednich praw lub licencji. Użytkownicy odpowiedzialni są za przestrzeganie tych zasad.