Nasz serwis internetowy oraz podmioty z nim współpracujące takie jak reklamodawcy, firmy badające rynek, dostawcy usług oraz treści, korzystają z plików Cookies zapisywanych na Twoim urządzeniu w celach identyfikacyjnych, reklamowych oraz statystycznych. Dzięki temu możemy między innymi dostosować wygląd strony do indywidualnych potrzeb użytkowników. W przeglądarce internetowej możesz zmienić ustawienia dotyczące Cookies. Instrukcje zmiany ustawień dla najpopularniejszych przeglądarek znajdziesz tutaj: Chrome, Firefox, Internet Explorer, Opera i Safari. Jeżeli nie wyrażasz zgody na wykorzystywanie przez nas mechanizmu Cookies, wyłącz ich obsługę w ustawieniach swojej przeglądarki.
Więcej informacji możesz znaleźć w Informacje o plikach cookies.
Haszkod.pl - Strona główna
szukaj
| |


Mały Książę / Le petit prince [1080p][2015][Dubbing PL]

Mały Książę / Le petit prince [1080p][2015][Dubbing PL]
sprawność: 88%
Zdobądź lepszą rangę,
aby oceniać haszkody.

Pokaż hashcode

Zaloguj się!

Dopiero po utworzeniu konta w serwisie, możliwe jest korzystanie z zawartości.

Rejestracja!
Dodał: D_M
Należy pobrać przez: MailDownloader
Kategoria: Filmy Rozmiar: 3,99 GB
Podkategoria: 1080p / 720p Pobrań: 32
Data dodania: 20-07-2017 21:53 Data premiery: 22 maja 2015





Kompresja: WinRAR 5+

Hasło pobierania i archiwum: www.haszkod.pl



Opis:
Mały Książę opowiada swoją historię pilotowi, którego samolot rozbił się na Saharze.




Video
Format : Matroska (HEVC)
Duration : 1 h 46 min
Bit rate : 4 458 kb/s
Width : 1 920 pixels
Height : 816 pixels
Display aspect ratio : 2.35:1
Frame rate : 23.976 FPS
Stream size : 3.32 GiB (86%)

Audio #1
Format : AC-3
Bit rate : 640 kb/s
Channel(s) : 6 channels
Stream size : 488 MiB (12%)
Language : Polish









Inne podobne haszkody dostępne w serwisie:
NazwaKategoriaSprawnośćRozmiarDodano
Mały Książę / Le petit prince / The Little Pr..Archiwum99%700 MB02-12-2015
Mały Książę [MULTi][BluRay][x264][1080p][2015..Filmy92%7,49 GB06-12-2015
Mały Książę AudioBook[2008][PL]Dokumenty74%60 MB27-11-2010
Mały Książę [BluRay][x264][720p][2015][Dubbin..Filmy97%4,57 GB03-12-2015
Książę / The Prince [DVDRip][2014][Lektor PL]Filmy96%823 MB17-12-2016
Najwyżej ocenionione komentarze:
Komentarze użytkowników:
brakuje part 164

0

1 0

12.08.2017
Już ok.

0

1 0

12.08.2017
Żaden z plików nie znajduje się na serwerze. Hashcody są własnością użytkowników. Administrator serwisu nie może ponieść konsekwencji za to co użytkownicy wstawiają lub za to co czynią na stronie.
Nie możesz używać tego serwisu do rozpowszechniania lub ściągania materiałów do których nie masz odpowiednich praw lub licencji. Użytkownicy odpowiedzialni są za przestrzeganie tych zasad.