Nasz serwis internetowy oraz podmioty z nim współpracujące takie jak reklamodawcy, firmy badające rynek, dostawcy usług oraz treści, korzystają z plików Cookies zapisywanych na Twoim urządzeniu w celach identyfikacyjnych, reklamowych oraz statystycznych. Dzięki temu możemy między innymi dostosować wygląd strony do indywidualnych potrzeb użytkowników. W przeglądarce internetowej możesz zmienić ustawienia dotyczące Cookies. Instrukcje zmiany ustawień dla najpopularniejszych przeglądarek znajdziesz tutaj: Chrome, Firefox, Internet Explorer, Opera i Safari. Jeżeli nie wyrażasz zgody na wykorzystywanie przez nas mechanizmu Cookies, wyłącz ich obsługę w ustawieniach swojej przeglądarki.
Więcej informacji możesz znaleźć w Informacje o plikach cookies.
Haszkod.pl - Strona główna
szukaj
| |


Mumia / The Mummy [WEB-DL][H264][AC3] [1080p][2017][ENG]

Mumia / The Mummy [WEB-DL][H264][AC3] [1080p][2017][ENG]
sprawność: 95%
Zdobądź lepszą rangę,
aby oceniać haszkody.

Pokaż hashcode

Zaloguj się!

Dopiero po utworzeniu konta w serwisie, możliwe jest korzystanie z zawartości.

Rejestracja!
Dodał: Ramsay
Należy pobrać przez: MailDownloader
Kategoria: Filmy Rozmiar: 4,19 GB
Podkategoria: 1080p / 720p Pobrań: 144
Data dodania: 05-08-2017 14:42 Data premiery: 09 czerwca 2017







Info:

Ocena.............................................: IMDB - 6/10 (10680)
Produkcja.........................................: USA
Gatunek...........................................: Fantasy, Przygodowy
Czas trwania......................................: 107 min.
Premiera..........................................: 09.06.2017 - Polska, 22.05.2017 - Świat
Reżyseria........................................: Alex Kurtzman
Scenariusz........................................: Christopher McQuarrie, David Koepp, Dylan Kussman

Obsada:
Tom Cruise, Russell Crowe, Annabelle Wallis, Sofia Boutella

O filmie:
Komandos marynarki wojennej, Nick Morton, wyrusza z zespołem do Iraku, by odnaleźć ukrywającą się w bunkrze grupę terrorystów. Na miejscu odkrywa starożytny grobowiec, w którym czyha ukryte niebezpieczeństwo.










Format : Matroska
Format version : Version 4 / Version 2
File size : 3.86 GiB
Duration : 1 h 50 min
Overall bit rate : 5 017 kb/s
Movie name : EVO
Encoded date : UTC 2017-08-02 18:26:39
Writing application : mkvmerge v6.7.0 ('Back to the Ground') 64bit built on Jan 8 2014 15:10:52
Writing library : libebml v1.3.0 + libmatroska v1.4.1

Video
ID : 4
Format : AVC
Format/Info : Advanced Video Codec
Format profile : [email protected]
Format settings, CABAC : Yes
Format settings, ReFrames : 5 frames
Codec ID : V_MPEG4/ISO/AVC
Duration : 1 h 50 min
Bit rate : 4 533 kb/s
Width : 1 916 pixels
Height : 792 pixels
Display aspect ratio : 2.40:1
Frame rate mode : Constant
Frame rate : 23.976 FPS
Color space : YUV
Chroma subsampling : 4:2:0
Bit depth : 8 bits
Scan type : Progressive
Bits/(Pixel*Frame) : 0.125
Stream size : 3.49 GiB (90%)
Language : English
Default : Yes
Forced : No
Color range : Limited
Color primaries : BT.709
Transfer characteristics : BT.709
Matrix coefficients : BT.709

Audio
ID : 1
Format : AC-3
Format/Info : Audio Coding 3
Mode extension : CM (complete main)
Format settings, Endianness : Big
Codec ID : A_AC3
Duration : 1 h 50 min
Bit rate mode : Constant
Bit rate : 384 kb/s
Channel(s) : 6 channels
Channel positions : Front: L C R, Side: L R, LFE
Sampling rate : 48.0 kHz
Frame rate : 31.250 FPS (1536 spf)
Bit depth : 16 bits
Compression mode : Lossy
Stream size : 302 MiB (8%)
Language : English
Default : Yes
Forced : No

Text #1
ID : 2
Format : UTF-8
Codec ID : S_TEXT/UTF8
Codec ID/Info : UTF-8 Plain Text
Title : Full
Language : English
Default : No
Forced : No

Text #2
ID : 3
Format : UTF-8
Codec ID : S_TEXT/UTF8
Codec ID/Info : UTF-8 Plain Text
Title : Forced
Language : English
Default : Yes
Forced : Yes














http://www.poomoc.pl/

Inne podobne haszkody dostępne w serwisie:
NazwaKategoriaSprawnośćRozmiarDodano
John Wick : Chapter 2 [WEB-DL][H264][AC3][108..Filmy97%4,04 GB31-05-2017
The Mummy (Mumia) [PSP][2000][ENG]Gry80%115 MB09-07-2010
The Mummy / Mumia [HD][TS][2017][ENG]Filmy88%722 MB17-06-2017
Mumia / The Mummy [720p][1999][Lektor PL]Filmy90%3,84 GB20-03-2014
Mumia / The Mummy [BDRip][2017][Lektor PL]Filmy98%699 MB23-09-2017
Najwyżej ocenionione komentarze:
Komentarze użytkowników:
Czy ktoś już oglądał? właśnie zasysam i jestem ciekaw czy warto.

0

1 0

19.08.2017
brakuje ostatniego (179) parta, jak w Ghost in the shell.

-1

1 0

02.09.2017
Wyniki ze sprawdzacza segmentów:
https://s26.postimg.org/uji2dff21/1343.jpg


Pobrało bez problemu:
https://s26.postimg.org/4rs5ahipl/1344.jpg


Wszystkie segmenty pobrało bez problemu:
https://s26.postimg.org/y9hp6bqwp/1345.jpg
https://s26.postimg.org/a70vbga9l/1346.jpg

Brak błędów podczas testowania archiwum:
https://s26.postimg.org/b6r675pfd/1347.jpg


Wypakowało bez problemu:
https://s26.postimg.org/nubixetq1/1348.jpg
https://s26.postimg.org/w13iozjsp/1349.jpg




WSTAWKA DZIAŁA!




Masz problemy z pobraniem wstawki?

Poczytaj dział FAQ (punkt 1 i 2):
http://www.haszkod.pl/artykuly,108,html

0

1 0

10.09.2017
Żaden z plików nie znajduje się na serwerze. Hashcody są własnością użytkowników. Administrator serwisu nie może ponieść konsekwencji za to co użytkownicy wstawiają lub za to co czynią na stronie.
Nie możesz używać tego serwisu do rozpowszechniania lub ściągania materiałów do których nie masz odpowiednich praw lub licencji. Użytkownicy odpowiedzialni są za przestrzeganie tych zasad.