Nasz serwis internetowy oraz podmioty z nim współpracujące takie jak reklamodawcy, firmy badające rynek, dostawcy usług oraz treści, korzystają z plików Cookies zapisywanych na Twoim urządzeniu w celach identyfikacyjnych, reklamowych oraz statystycznych. Dzięki temu możemy między innymi dostosować wygląd strony do indywidualnych potrzeb użytkowników. W przeglądarce internetowej możesz zmienić ustawienia dotyczące Cookies. Instrukcje zmiany ustawień dla najpopularniejszych przeglądarek znajdziesz tutaj: Chrome, Firefox, Internet Explorer, Opera i Safari. Jeżeli nie wyrażasz zgody na wykorzystywanie przez nas mechanizmu Cookies, wyłącz ich obsługę w ustawieniach swojej przeglądarki.
Więcej informacji możesz znaleźć w Informacje o plikach cookies.
Haszkod.pl - Strona główna
szukaj
| |


Niepamięć / Oblivion [4K UHD][Dual Audio] [2013][Lektor PL]

Niepamięć / Oblivion [4K UHD][Dual Audio] [2013][Lektor PL]
sprawność: 84%
Zdobądź lepszą rangę,
aby oceniać haszkody.

Pokaż hashcode

Zaloguj się!

Dopiero po utworzeniu konta w serwisie, możliwe jest korzystanie z zawartości.

Rejestracja!
Dodał: D_M
Należy pobrać przez: MailDownloader
Kategoria: Filmy Rozmiar: 52,71 GB
Podkategoria: 4K Pobrań: 29
Data dodania: 12-10-2017 17:07 Data premiery: 26 marca 2013





Kompresja: WinRAR 5+

Hasło pobierania i archiwum: www.haszkod.pl



Opis:

Rok 2077, z powodu napromieniowania Ziemi ludzie przenieśli się na księżyc Saturna, Tytana. Jack Harper wpada na trop zagadki, która całkowicie zmienia jego światopogląd i przyszłość ludzkości.




Video
Format : Matroska (HEVC)
Duration : 2 h 4 min
Bit rate : 53.3 Mb/s
Width : 3 840 pixels
Height : 1 608 pixels
Display aspect ratio : 2.40:1
Frame rate : 23.976 FPS
Bit depth : 10 bits
Stream size : 46.4 GiB (91%)

Audio #1
Format : AC-3
Bit rate : 448 kb/s
Channel(s) : 6 channels
Stream size : 399 MiB (1%)
Language : Polish

Audio #2
Format : DTS
Bit rate : 5 034 kb/s / 1 509 kb/s
Channel(s) : 8 channels / 6 channels
Stream size : 4.38 GiB (9%)
Language : English

Text
Format : UTF-8
Language : Polish









ostatnia modyfikacja: 12 października 2017, 17:08 (//)
Inne podobne haszkody dostępne w serwisie:
NazwaKategoriaSprawnośćRozmiarDodano
Life [4K UHD][Dual Audio] [2017][Lektor PL]Filmy93%38,80 GB14-09-2017
Nowy początek / Arrival [4K UHD][Dual Audio] ..Filmy90%21,67 GB18-09-2017
Marsjanin / The Martian [4K UHD][Dual Audio] ..Filmy95%49,94 GB11-09-2017
Legion samobójców / Suicide Squad [4K UHD][Du..Filmy88%25,77 GB21-10-2017
BBC - Planeta Ziemia II [Odc. 1/6][4K UHD][Du..Filmy88%9,68 GB05-11-2017
Najwyżej ocenionione komentarze:
Komentarze użytkowników:
ktoś coś wie czym to uruchomić Oblivion w 4K ? :)

0

1 0

12.10.2017
Polecam MPC-HC a na androidzie VLC

0

1 0

12.10.2017
D_M Dziękuję za info :)

0

1 0

13.10.2017
Hej, jest szansa na poprawienie:
Oblivion.2013.DualAudio.UHD.BluRay.x265 (8, 1401-1600)

Wszystko mi się ładnie ściągnęło poza partami 1554-1600 :/
Kiedy zastopowałem zadanie i od początku chce ściągać, to tylko w kółko listuje i tak od dwóch dni..

edit: po wielu restartach, prób ściągania konkretnych partów od początku - udało się :)

Ostatnio edytowane przez realporter w dniu 2017-10-29 17:21:17

0

1 0

29.10.2017
Dodaj komentarz:
Zasady pisania komentarzy w serwisie Haszkod.pl :
  • Zakaz podawania adresów stron o podobnej tematyce.
  • Zakaz wklejania linków do alternatywnej metody ściągnięcia tej samej rzeczy.
  • Zakaz składania próśb o upload, jest do tego specjalny dział.
  • Zakaz wklejania hashcodów w treści komentarzy.
Wypowiedzi w komentarzach powinny być formułowane w sposób uprzejmy, z poszanowaniem innych użytkowników i ich stanowisk.

Autor:
Treść:

+ - | b u i

Możesz jeszcze wpisać: znaków.

Żaden z plików nie znajduje się na serwerze. Hashcody są własnością użytkowników. Administrator serwisu nie może ponieść konsekwencji za to co użytkownicy wstawiają lub za to co czynią na stronie.
Nie możesz używać tego serwisu do rozpowszechniania lub ściągania materiałów do których nie masz odpowiednich praw lub licencji. Użytkownicy odpowiedzialni są za przestrzeganie tych zasad.