Nasz serwis internetowy oraz podmioty z nim współpracujące takie jak reklamodawcy, firmy badające rynek, dostawcy usług oraz treści, korzystają z plików Cookies zapisywanych na Twoim urządzeniu w celach identyfikacyjnych, reklamowych oraz statystycznych. Dzięki temu możemy między innymi dostosować wygląd strony do indywidualnych potrzeb użytkowników. W przeglądarce internetowej możesz zmienić ustawienia dotyczące Cookies. Instrukcje zmiany ustawień dla najpopularniejszych przeglądarek znajdziesz tutaj: Chrome, Firefox, Internet Explorer, Opera i Safari. Jeżeli nie wyrażasz zgody na wykorzystywanie przez nas mechanizmu Cookies, wyłącz ich obsługę w ustawieniach swojej przeglądarki.
Więcej informacji możesz znaleźć w Informacje o plikach cookies.
Haszkod.pl - Strona główna
szukaj
| |


Strażnicy Galaktyki vol. 2 / Guardians of the Galaxy Vol. 2 [1080p][Dual Audio] [2017][Dubbing PL]

Strażnicy Galaktyki vol. 2 / Guardians of the Galaxy Vol. 2 [1080p][Dual Audio] [2017][Dubbing PL]
sprawność: 97%
Zdobądź lepszą rangę,
aby oceniać haszkody.

Pokaż hashcode

Zaloguj się!

Dopiero po utworzeniu konta w serwisie, możliwe jest korzystanie z zawartości.

Rejestracja!
Dodał: D_M
Należy pobrać przez: MailDownloader
Kategoria: Filmy Rozmiar: 10,02 GB
Podkategoria: 1080p / 720p Pobrań: 126
Data dodania: 04-10-2017 22:07 Data premiery: 19 kwietnia 2017





Kompresja: WinRAR 5+

Hasło pobierania i archiwum: www.haszkod.pl



Opis:

Peter Quill z drużyną wyrzutków kontynuuje podróż przez kosmos i jako obrońca galaktyki stawia czoła nowym niebezpieczeństwom. Poznaje także prawdę o swoim ojcu oraz jego dziedzictwie.




Video
Format : Matroska (HEVC)
Duration : 2 h 15 min
Bit rate : 4 960 kb/s
Width : 1 920 pixels
Height : 802 pixels
Display aspect ratio : 2.40:1
Frame rate : 23.976 FPS
Bit depth : 10 bits
Stream size : 4.70 GiB (47%)

Audio #1
Format : AC-3
Bit rate : 640 kb/s
Channel(s) : 6 channels
Stream size : 622 MiB (6%)
Language : Polish

Audio #2
Format : DTS
Bit rate : 4 843 kb/s / 1 509 kb/s
Channel(s) : 8 channels / 6 channels
Stream size : 4.59 GiB (46%)
Language : English

Text
Format : UTF-8
Language : Polish









ostatnia modyfikacja: 04 października 2017, 22:08 (//)
Inne podobne haszkody dostępne w serwisie:
NazwaKategoriaSprawnośćRozmiarDodano
Strażnicy Galaktyki vol. 2 / Guardians of the..Filmy96%30,45 GB27-09-2017
Strażnicy Galaktyki vol. 2 / Guardians of the..Filmy99%1,43 GB13-08-2017
Strażnicy Galaktyki vol. 2 / Guardians of the..Filmy98%1,37 GB31-08-2017
Strażnicy Galaktyki vol. 2 / Guardians of the..Filmy96%712 MB24-05-2017
Strażnicy Galaktyki Vol. 2 / Guardians of the..Filmy94%2,04 GB02-08-2017
Najwyżej ocenionione komentarze:
Wszystko 100 % sprawne

1

1 0

08.10.2017
Komentarze użytkowników:
puszczam na 2 różnych programach i mam sam dźwięk - czarny obraz

0

1 0

06.10.2017
niestety kino domowe tez nie odtwarza

0

1 0

06.10.2017
Powodem jest pewnie brak obsługi HEVC przez kino domowe.

0

1 0

06.10.2017
Wszystko 100 % sprawne

1

1 0

08.10.2017
dzięki - kumam

0

1 0

08.10.2017
a gdzie wlaczyc dubing pl???? bo tylko english mam.



ok juz mam działa 100%

Ostatnio edytowane przez nagar1 w dniu 2017-10-24 17:39:43

0

1 0

24.10.2017
Żaden z plików nie znajduje się na serwerze. Hashcody są własnością użytkowników. Administrator serwisu nie może ponieść konsekwencji za to co użytkownicy wstawiają lub za to co czynią na stronie.
Nie możesz używać tego serwisu do rozpowszechniania lub ściągania materiałów do których nie masz odpowiednich praw lub licencji. Użytkownicy odpowiedzialni są za przestrzeganie tych zasad.