Nasz serwis internetowy oraz podmioty z nim współpracujące takie jak reklamodawcy, firmy badające rynek, dostawcy usług oraz treści, korzystają z plików Cookies zapisywanych na Twoim urządzeniu w celach identyfikacyjnych, reklamowych oraz statystycznych. Dzięki temu możemy między innymi dostosować wygląd strony do indywidualnych potrzeb użytkowników. W przeglądarce internetowej możesz zmienić ustawienia dotyczące Cookies. Instrukcje zmiany ustawień dla najpopularniejszych przeglądarek znajdziesz tutaj: Chrome, Firefox, Internet Explorer, Opera i Safari. Jeżeli nie wyrażasz zgody na wykorzystywanie przez nas mechanizmu Cookies, wyłącz ich obsługę w ustawieniach swojej przeglądarki.
Więcej informacji możesz znaleźć w Informacje o plikach cookies.
Haszkod.pl - Strona główna
szukaj
| |
Jesteś w trakcie przeglądania haszkodu z archiwum. Poniższy haszkod jest nieaktualny i nie zostanie rozpoznany przez program.


Cesarz / Emperor [1080p] [2012][Lektor PL]

Cesarz / Emperor [1080p] [2012][Lektor PL]

Pokaż hashcode

Zaloguj się!

Dopiero po utworzeniu konta w serwisie, możliwe jest korzystanie z zawartości.

Rejestracja!
Dodał: mlody999
Należy pobrać przez: MailShare
Kategoria: Archiwum Rozmiar: 7,63 GB
Podkategoria: Archiwum Pobrań: 76
Data dodania: 05-08-2013 12:39 Data premiery: 14 września 2012


Japonia tuż po zakończeniu II wojny światowej. Generał MacArthur (Tommy Lee Jones) stoi na czele amerykańskich sił zbrojnych zarządzających krajem po kapitulacji. Jego decyzje odcisną piętno na losie japońskich obywateli przez najbliższe lata. Najtrudniejsza z nich dotyczy cesarza Hirohito ? czy powinien być sądzony i skazany jako zbrodniarz wojenny? Zadanie zebrania materiału dowodowego w tej sprawie otrzymuje generał Bonner Fellers (Fox). Jego związki z Japonią są szczególne ? wspomnienia romansu z japońską studentką Ayą są tak silne, że generał postanawia odnaleźć dziewczynę w zniszczonym przez wojnę kraju.




General
Format : Matroska
Format version : Version 4 / Version 2
File size : 6.86 GiB
Duration : 1h 45mn
Overall bit rate : 9 309 Kbps
Movie name : Emperor.2012.PL.1080p.BluRay.x264.AC3-Izyk
Encoded date : UTC 2013-08-01 12:53:48
Writing application : mkvmerge v6.1.0 ('Old Devil') built on Mar 2 2013 14:32:37
Writing library : libebml v1.3.0 + libmatroska v1.4.0

Video
ID : 1
Format : AVC
Format/Info : Advanced Video Codec
Format profile : [email protected]
Format settings, CABAC : Yes
Format settings, ReFrames : 5 frames
Codec ID : V_MPEG4/ISO/AVC
Duration : 1h 45mn
Bit rate : 8 864 Kbps
Width : 1 920 pixels
Height : 816 pixels
Display aspect ratio : 2.35:1
Frame rate mode : Constant
Frame rate : 23.976 fps
Color space : YUV
Chroma subsampling : 4:2:0
Bit depth : 8 bits
Scan type : Progressive
Bits/(Pixel*Frame) : 0.236
Stream size : 6.40 GiB (93%)
Writing library : x264 core 135 r2345 f0c1c53
Encoding settings : cabac=1 / ref=5 / deblock=1:0:0 / analyse=0x3:0x133 / me=umh / subme=7 / psy=1 / psy_rd=1.00:0.00 / mixed_ref=1 / me_range=16 / chroma_me=1 / trellis=1 / 8x8dct=1 / cqm=0 / deadzone=21,11 / fast_pskip=0 / chroma_qp_offset=-2 / threads=12 / lookahead_threads=2 / sliced_threads=0 / nr=0 / decimate=1 / interlaced=0 / bluray_compat=0 / constrained_intra=0 / bframes=3 / b_pyramid=2 / b_adapt=2 / b_bias=0 / direct=3 / weightb=1 / open_gop=0 / weightp=2 / keyint=250 / keyint_min=23 / scenecut=40 / intra_refresh=0 / rc_lookahead=50 / rc=2pass / mbtree=1 / bitrate=8864 / ratetol=1.0 / qcomp=0.60 / qpmin=0 / qpmax=69 / qpstep=4 / cplxblur=20.0 / qblur=0.5 / ip_ratio=1.40 / aq=1:1.00
Language : English
Default : Yes
Forced : No

Audio
ID : 2
Format : AC-3
Format/Info : Audio Coding 3
Mode extension : CM (complete main)
Format settings, Endianness : Big
Codec ID : A_AC3
Duration : 1h 45mn
Bit rate mode : Constant
Bit rate : 448 Kbps
Channel(s) : 6 channels
Channel positions : Front: L C R, Side: L R, LFE
Sampling rate : 48.0 KHz
Bit depth : 16 bits
Compression mode : Lossy
Delay relative to video : 27s 500ms
Stream size : 338 MiB (5%)
Title : Jezyk
Language : Polish
Default : Yes
Forced : Yes
































ostatnia modyfikacja: 05 sierpnia 2013, 12:40 (ss)
Inne podobne haszkody dostępne w serwisie:
NazwaKategoriaSprawnośćRozmiarDodano
The Last Emperor / Ostatni cesarz [m720p][x26..Filmy84%3,12 GB22-11-2011
Cesarz / Emperor [BDRip] [2012][ENG]Filmy92%794 MB02-08-2013
Cesarz: Narodziny Państwa Środka [PC][2002][P..Gry94%677 MB28-12-2016
Sword and Sandals 2: Emperor's Reign [PC..Gry88%9 MB05-12-2010
Emperor: Battle for Dune [PC][2001][ENG]Gry93%2,44 GB01-05-2011
Najwyżej ocenionione komentarze:
Komentarze użytkowników:
Wszystkie skrzynki padły

0

1 0

26.04.2020
Żaden z plików nie znajduje się na serwerze. Hashcody są własnością użytkowników. Administrator serwisu nie może ponieść konsekwencji za to co użytkownicy wstawiają lub za to co czynią na stronie.
Nie możesz używać tego serwisu do rozpowszechniania lub ściągania materiałów do których nie masz odpowiednich praw lub licencji. Użytkownicy odpowiedzialni są za przestrzeganie tych zasad.