Nasz serwis internetowy oraz podmioty z nim współpracujące takie jak reklamodawcy, firmy badające rynek, dostawcy usług oraz treści, korzystają z plików Cookies zapisywanych na Twoim urządzeniu w celach identyfikacyjnych, reklamowych oraz statystycznych. Dzięki temu możemy między innymi dostosować wygląd strony do indywidualnych potrzeb użytkowników. W przeglądarce internetowej możesz zmienić ustawienia dotyczące Cookies. Instrukcje zmiany ustawień dla najpopularniejszych przeglądarek znajdziesz tutaj: Chrome, Firefox, Internet Explorer, Opera i Safari. Jeżeli nie wyrażasz zgody na wykorzystywanie przez nas mechanizmu Cookies, wyłącz ich obsługę w ustawieniach swojej przeglądarki.
Więcej informacji możesz znaleźć w Informacje o plikach cookies.
Haszkod.pl - Strona główna
szukaj
| |
Jesteś w trakcie przeglądania haszkodu z archiwum. Poniższy haszkod jest nieaktualny i nie zostanie rozpoznany przez program.


Faceci W Czerni / Men In Black [TRILOGY][1080p][1997-2012] [Lektor PL]

Faceci W Czerni / Men In Black [TRILOGY][1080p][1997-2012] [Lektor PL]

Pokaż hashcode

Zaloguj się!

Dopiero po utworzeniu konta w serwisie, możliwe jest korzystanie z zawartości.

Rejestracja!
Dodał: mlody999
Należy pobrać przez: MailShare
Kategoria: Archiwum Rozmiar: 34,21 GB
Podkategoria: Archiwum Pobrań: 69
Data dodania: 15-09-2013 20:46



Część I


Jest to komedia fantastyczno-naukowa. Na Ziemię napływa ciągła emigracja z kosmosu. Przybysze doskonale potrafią się kamuflować przybierając wygląd zwykłych Ziemian, dlatego ludzie są nieświadomi ich obecności. Kontrolę nad tym kosmicznym napływem sprawuje specjalna, ściśle tajna jednostka. Jej członkowie charakteryzują się tajemniczością i oczywiście czarnymi garniturami. Niestety na Ziemię dostał się ogromny robal z kosmosu, który wdział się w ludzką skórę. Will Smith i Tommy Lee Jones spróbują go się pozbyć

Część II


Agenci Jay i Kay spotykają się ponownie, by stawić czoła złowrogiej uwodzicielce, która stanowi największe niebezpieczeństwo, z jakim kiedykolwiek musiała sobie radzić organizacja MIB w swej misji ratowania Ziemi przed mętami z kosmosu. W przeciągu czterech lat, jak minęły od czasu, gdy ci dwaj agenci po raz ostatni współpracowali nad odwróceniem od Ziemi widma zagłady, Kay rozkoszował się urokami życia zwykłego obywatela, a Jay przejął jego pozycje w firmie. Podczas pozornie rutynowego śledztwa w sprawie przestępstwa popełnionego między kosmitami, Jay odkrywa diaboliczną intrygę, za którą stoi Serleena, zła i przewrotna kosmitka z odległej galaktyki, ukrywająca się pod postacią seksownej modelki bielizny. Na Ziemi jest tylko jedna osoba, która wie, jakie są naprawdę intencje Serleeny. Jest to były agent MIB, obecnie naczelny obibok w innej państwowej organizacji, a mianowicie na amerykańskiej poczcie.

Część III


Kolejna część kultowej serii o agentach specjalnej jednostki rządowej. Zadaniem jednostki jest zajmowanie się kontaktami z Obcymi i utrzymywaniem społeczeństwa w nieświadomości, jak częste są wizyty przybyszów z kosmosu... Pojawiają się bez zapowiedzi, znikają bez śladu. Ich znakiem rozpoznawczym są czarne garnitury i okulary... a także cały zestaw kosmicznych gadżetów. Tym razem dwaj najbardziej znani agenci MIB zmierzą się z kosmitami w niezwykłym śledztwie pokonującym bariery nie tylko przestrzeni, ale i czasu. Agenci w czerni bronią Ziemi przed kosmitami już po raz trzeci - dwie pierwsze części cyklu zyskały sobie na całym świecie rzeszę wiernych fanów, zarabiając odpowiednio 600 i 400 milionów dolarów.




Część I


General
Unique ID : 201079766462828749329474645272956815471 (0x97468DE97EF66F92B2839D3BCE8CC86F)
Complete name : D:mibmib1Men.in.Black.1997.1080p.BluRay.x264.mkv
Format : Matroska
Format version : Version 2
File size : 8.48 GiB
Duration : 1h 37mn
Overall bit rate : 12.4 Mbps
Movie name : Men in Black FilmyHD.net
Encoded date : UTC 2012-09-17 04:00:01
Writing application : mkvmerge v3.0.0 ('Hang up your Hang-Ups') built on Dec 12 2009 15:20:35
Writing library : libebml v0.7.9 + libmatroska v0.8.1

Video
ID : 1
Format : AVC
Format/Info : Advanced Video Codec
Format profile : [email protected]
Format settings, CABAC : Yes
Format settings, ReFrames : 4 frames
Codec ID : V_MPEG4/ISO/AVC
Duration : 1h 37mn
Bit rate : 11.5 Mbps
Width : 1 920 pixels
Height : 1 040 pixels
Display aspect ratio : 1.85:1
Frame rate mode : Constant
Frame rate : 23.976 fps
Color space : YUV
Chroma subsampling : 4:2:0
Bit depth : 8 bits
Scan type : Progressive
Bits/(Pixel*Frame) : 0.240
Stream size : 7.70 GiB (91%)
Title : Men in Black FilmyHD.net
Writing library : x264 core 116 r2074 2641b9e
Language : English
Default : Yes
Forced


Część II


General
Unique ID : 184011093831943031570947260367590098363 (0x8A6F3F60D0CB4A1492A0FF52290B85BB)
Complete name : D:mibmib2Men.in.Black.II.2002.1080p.BluRay.x264.mkv
Format : Matroska
Format version : Version 2
File size : 8.34 GiB
Duration : 1h 28mn
Overall bit rate : 13.5 Mbps
Movie name : Men in Black II FilmyHD.net
Encoded date : UTC 2012-09-17 04:08:49
Writing application : mkvmerge v3.0.0 ('Hang up your Hang-Ups') built on Dec 12 2009 15:20:35
Writing library : libebml v0.7.9 + libmatroska v0.8.1

Video
ID : 1
Format : AVC
Format/Info : Advanced Video Codec
Format profile : [email protected]
Format settings, CABAC : Yes
Format settings, ReFrames : 4 frames
Codec ID : V_MPEG4/ISO/AVC
Duration : 1h 28mn
Bit rate : 11.4 Mbps
Width : 1 920 pixels
Height : 1 040 pixels
Display aspect ratio : 1.85:1
Frame rate mode : Constant
Frame rate : 23.976 fps
Color space : YUV
Chroma subsampling : 4:2:0
Bit depth : 8 bits
Scan type : Progressive
Bits/(Pixel*Frame) : 0.238
Stream size : 6.85 GiB (82%)
Title : Men in Black II FilmyHD.net
Writing library : x264 core 116 r2074 2641b9e
Language : English
Default : Yes
Forced : No


Część III


General
Unique ID : 196103677272551793569279860706075610247 (0x938831C5ED22A4E290A18CFF461E0C87)
Complete name : D:mibmib3Men.in.Black.III.2012.1080p.BluRay.x264.mkv
Format : Matroska
Format version : Version 2
File size : 14.0 GiB
Duration : 1h 45mn
Overall bit rate : 19.0 Mbps
Movie name : Men in Black III FilmyHD.net
Encoded date : UTC 2012-09-07 22:26:23
Writing application : mkvmerge v3.0.0 ('Hang up your Hang-Ups') built on Dec 12 2009 15:20:35
Writing library : libebml v0.7.9 + libmatroska v0.8.1

Video
ID : 1
Format : AVC
Format/Info : Advanced Video Codec
Format profile : [email protected]
Format settings, CABAC : Yes
Format settings, ReFrames : 4 frames
Codec ID : V_MPEG4/ISO/AVC
Duration : 1h 45mn
Bit rate : 16.8 Mbps
Width : 1 920 pixels
Height : 1 040 pixels
Display aspect ratio : 1.85:1
Frame rate mode : Constant
Frame rate : 23.976 fps
Color space : YUV
Chroma subsampling : 4:2:0
Bit depth : 8 bits
Scan type : Progressive
Bits/(Pixel*Frame) : 0.351
Stream size : 12.2 GiB (87%)
Title : Men in Black III FilmyHD.net
Writing library : x264 core 125 r2208 d9d2288
Language : English
Default : Yes
Forced : No





Część I








Część II








Część III

























Pliki trzymam na dysku tydzień od wstawienia, po upływie tego czasu nie naprawiam uploadów.
ostatnia modyfikacja: 11 września 2017, 16:38 (Zmiana okładki. // edited by _RPK_)
Inne podobne haszkody dostępne w serwisie:
NazwaKategoriaSprawnośćRozmiarDodano
Faceci w czerni- Men in Black [DVDRip] [1997]..Archiwum97%731 MB08-02-2011
Faceci w czerni II - Men in Black II [DVDRip]..Archiwum95%701 MB09-02-2011
Faceci w czerni / Men in Black [720p] [BRRip]..Filmy93%2,46 GB05-04-2012
Faceci w czerni 2 / Men in Black 2 [720p] [BR..Filmy94%1,95 GB05-04-2012
Faceci w czerni 3 / Men in Black III [TS] [20..Archiwum97%756 MB01-06-2012
Najwyżej ocenionione komentarze:
Komentarze użytkowników:
Piękny upload, gratulacje.

-1

1 0

15.09.2013
Dzięki, dzięki :)

0

1 0

15.09.2013
to mi sie bardzo podoba fullHD wszystkie 3 części. Dla mnie 5* i szacun :)

0

1 0

16.09.2013
Dzięki piękne, zaczynam pobierać.

0

1 0

16.09.2013
Polecam wstawka świetna jak i sam upload bez zarzutów :)

0

1 0

06.10.2013
Upload padł, wyciągam działające skrzynki

0

1 0

03.10.2020
Żaden z plików nie znajduje się na serwerze. Hashcody są własnością użytkowników. Administrator serwisu nie może ponieść konsekwencji za to co użytkownicy wstawiają lub za to co czynią na stronie.
Nie możesz używać tego serwisu do rozpowszechniania lub ściągania materiałów do których nie masz odpowiednich praw lub licencji. Użytkownicy odpowiedzialni są za przestrzeganie tych zasad.