Nasz serwis internetowy oraz podmioty z nim współpracujące takie jak reklamodawcy, firmy badające rynek, dostawcy usług oraz treści, korzystają z plików Cookies zapisywanych na Twoim urządzeniu w celach identyfikacyjnych, reklamowych oraz statystycznych. Dzięki temu możemy między innymi dostosować wygląd strony do indywidualnych potrzeb użytkowników. W przeglądarce internetowej możesz zmienić ustawienia dotyczące Cookies. Instrukcje zmiany ustawień dla najpopularniejszych przeglądarek znajdziesz tutaj: Chrome, Firefox, Internet Explorer, Opera i Safari. Jeżeli nie wyrażasz zgody na wykorzystywanie przez nas mechanizmu Cookies, wyłącz ich obsługę w ustawieniach swojej przeglądarki.
Więcej informacji możesz znaleźć w Informacje o plikach cookies.
Haszkod.pl - Strona główna
szukaj
| |
Jesteś w trakcie przeglądania haszkodu z archiwum. Poniższy haszkod jest nieaktualny i nie zostanie rozpoznany przez program.


Kompania braci / Band of brothers [720p] [2001][ENG]

Kompania braci / Band of brothers [720p] [2001][ENG]

Pokaż hashcode

Zaloguj się!

Dopiero po utworzeniu konta w serwisie, możliwe jest korzystanie z zawartości.

Rejestracja!
Dodał: samer19
Należy pobrać przez: MailShare
Kategoria: Archiwum Rozmiar: 24,20 GB
Podkategoria: Archiwum Pobrań: 169
Data dodania: 05-06-2013 14:36 Data premiery: 01 stycznia 2001




Losy Kompanii E, 506 pułku piechoty spadochronowej, 101 Dywizji Powietrznodesantowej Armii USA opowiedziane z perspektywy tych, którzy przeżyli drugą wojnę światową.


Przykładowy odcinek
General
Unique ID : 228806183264069833675942967088643364060 (0xAC2277CD9905981AB54C1D2959C4D4DC)
Complete name : D:UploadKompania braciKompania Braci odc.2Band Of Brothers [02] - Day Of Days.mkv
Format : Matroska
Format version : Version 1
File size : 2.19 GiB
Duration : 52mn 1s
Overall bit rate : 6 018 Kbps
Encoded date : UTC 2008-02-21 06:56:26
Writing application : mkvmerge v2.1.0 ('Another Place To Fall') built on Aug 19 2007 13:40:07
Writing library : libebml v0.7.7 + libmatroska v0.8.1

Video
ID : 2
Format : AVC
Format/Info : Advanced Video Codec
Format profile : [email protected]
Format settings, CABAC : Yes
Format settings, ReFrames : 8 frames
Codec ID : V_MPEG4/ISO/AVC
Duration : 52mn 1s
Bit rate : 4 507 Kbps
Width : 1 280 pixels
Height : 720 pixels
Display aspect ratio : 16:9
Frame rate mode : Constant
Frame rate : 23.976 fps
Color space : YUV
Chroma subsampling : 4:2:0
Bit depth : 8 bits
Scan type : Progressive
Bits/(Pixel*Frame) : 0.204
Stream size : 1.59 GiB (73%)
Title : Video - 720p
Writing library : x264 core 56 svn-667C
Encoding settings : cabac=1 / ref=5 / deblock=1:-4:-4 / analyse=0x3:0x133 / me=umh / subme=6 / brdo=1 / mixed_ref=1 / me_range=16 / chroma_me=1 / trellis=1 / 8x8dct=1 / cqm=2 / deadzone=4,6 / chroma_qp_offset=0 / threads=3 / nr=0 / decimate=1 / mbaff=0 / bframes=3 / b_pyramid=1 / b_adapt=1 / b_bias=0 / direct=3 / wpredb=1 / bime=1 / keyint=250 / keyint_min=25 / scenecut=40(pre) / rc=2pass / bitrate=4507 / ratetol=1.0 / rceq='blurCplx^(1-qComp)' / qcomp=0.60 / qpmin=10 / qpmax=51 / qpstep=4 / cplxblur=20.0 / qblur=0.5 / ip_ratio=1.40 / pb_ratio=1.30 / zones=70284,74818,b=0.15 / aq=1:0.3:15.0
Language : English
Default : Yes
Forced : No

Audio
ID : 1
Format : DTS
Format/Info : Digital Theater Systems
Mode : 16
Format settings, Endianness : Big
Codec ID : A_DTS
Duration : 52mn 1s
Bit rate mode : Constant
Bit rate : 1 509 Kbps
Channel(s) : 6 channels
Channel positions : Front: L C R, Side: L R, LFE
Sampling rate : 48.0 KHz
Bit depth : 16 bits
Compression mode : Lossy
Stream size : 561 MiB (25%)
Title : Audio: ENG (5.1)
Language : English
Default : Yes
Forced : No

Text
ID : 3
Format : UTF-8
Codec ID : S_TEXT/UTF8
Codec ID/Info : UTF-8 Plain Text
Title : Napisy
Language : Polish
Default : Yes
Forced : No







TRAILER






ostatnia modyfikacja: 05 czerwca 2013, 14:36 (///)
Inne podobne haszkody dostępne w serwisie:
NazwaKategoriaSprawnośćRozmiarDodano
Band of Brothers/Kompania Braci - e01[720p][x..Archiwum90%2,16 GB30-10-2011
Band of Brothers/Kompania Braci - e02[720p][x..Filmy86%2,17 GB01-11-2011
Band of Brothers/Kompania Braci - e03[720p][x..Filmy88%2,16 GB06-11-2011
Band of Brothers/Kompania Braci - e04[720p][x..Filmy86%2,17 GB12-11-2011
Band of Brothers/Kompania Braci - e05[720p][x..Filmy88%2,17 GB22-11-2011
Najwyżej ocenionione komentarze:
Czego nie zrobią takiego filmu z rozmachem o polskich żołnierzach? :)

2

1 0

07.06.2013
Komentarze użytkowników:
Biere : D

0

1 0

05.06.2013
Czego nie zrobią takiego filmu z rozmachem o polskich żołnierzach? :)

2

1 0

07.06.2013
W tej wersji są napisy polskie, tak ?:)

0

1 0

20.06.2013
Nikt mi nie odpowiedział, ale wstawka jak najbardziej działa, a i napisy polskie są! :)

0

1 0

23.06.2013
Co jest z tą wstawką.. tu jest jeden epizod ? Hashcode taki maly..

0

1 0

21.09.2013
Upload padł, wyciągam działające skrzynki

0

1 0

30.10.2021
Żaden z plików nie znajduje się na serwerze. Hashcody są własnością użytkowników. Administrator serwisu nie może ponieść konsekwencji za to co użytkownicy wstawiają lub za to co czynią na stronie.
Nie możesz używać tego serwisu do rozpowszechniania lub ściągania materiałów do których nie masz odpowiednich praw lub licencji. Użytkownicy odpowiedzialni są za przestrzeganie tych zasad.