Nasz serwis internetowy oraz podmioty z nim współpracujące takie jak reklamodawcy, firmy badające rynek, dostawcy usług oraz treści, korzystają z plików Cookies zapisywanych na Twoim urządzeniu w celach identyfikacyjnych, reklamowych oraz statystycznych. Dzięki temu możemy między innymi dostosować wygląd strony do indywidualnych potrzeb użytkowników. W przeglądarce internetowej możesz zmienić ustawienia dotyczące Cookies. Instrukcje zmiany ustawień dla najpopularniejszych przeglądarek znajdziesz tutaj: Chrome, Firefox, Internet Explorer, Opera i Safari. Jeżeli nie wyrażasz zgody na wykorzystywanie przez nas mechanizmu Cookies, wyłącz ich obsługę w ustawieniach swojej przeglądarki.
Więcej informacji możesz znaleźć w Informacje o plikach cookies.
Haszkod.pl - Strona główna
szukaj
| |


Agenci NCIS [Sezon 15] [2017][Lektor PL]

Agenci NCIS [Sezon 15] [2017][Lektor PL]
sprawność: 50%
Zdobądź lepszą rangę,
aby oceniać haszkody.

Pokaż hashcode

Zaloguj się!

Dopiero po utworzeniu konta w serwisie, możliwe jest korzystanie z zawartości.

Rejestracja!
Dodał: D_M
Należy pobrać przez: MailDownloader
Kategoria: Filmy Rozmiar: 14,66 GB
Podkategoria: Sezony Pobrań: 6
Data dodania: 04-07-2018 11:02 Data premiery: 26 września 2017





Kompresja: WinRAR 5+

Hasło pobierania i archiwum: www.haszkod.pl



Opis:
Grupa pracowników rządowej agencji NCIS rozwiązuje trudne zagadki kryminalne związane z Marynarką Wojenną. Dowodzi nią działający według własnych zasad Jethro Gibbs.




Video
Format : AVI
Duration : 42 min 27 s
Bit rate : 1 600 kb/s
Width : 720 pixels
Height : 400 pixels
Display aspect ratio : 16:9
Frame rate : 23.976 FPS
Stream size : 486 MiB (80%)

Audio
Format : AC-3
Nominal bit rate : 384 kb/s
Channel(s) : 6 channels
Stream size : 117 MiB (19%)









ostatnia modyfikacja: 04 lipca 2018, 11:02 (//)
Inne podobne haszkody dostępne w serwisie:
NazwaKategoriaSprawnośćRozmiarDodano
Agenci NCIS [Sezon 4] [2006][Lektor PL]Filmy90%8,36 GB14-05-2017
Agenci NCIS [Sezon 7] [2009][Lektor PL]Filmy88%8,48 GB17-05-2017
Agenci NCIS [Sezon 1] [2003]Filmy75%8,25 GB12-01-2012
Agenci NCIS [Sezon 6] [2003][Lektor PL]Filmy75%9,36 GB27-09-2013
Agenci NCIS [Sezon 6] [2008][Lektor PL]Filmy88%8,73 GB16-05-2017
Najwyżej ocenionione komentarze:
Komentarze użytkowników:
No dobra winrar 5 a mi pobrało i chyba wypakowało samo bo mam tylko puste foldery :?

0

1 0

09.08.2018
snajper0150 MailDownloader nie ma opcji automatycznego wypakowywania, jesteś pewien że pobrało wszystko?
https://i.imgur.com/wqTjQTd.jpg

0

1 0

09.08.2018
Dodaj komentarz:
Zasady pisania komentarzy w serwisie Haszkod.pl :
  • Zakaz podawania adresów stron o podobnej tematyce.
  • Zakaz wklejania linków do alternatywnej metody ściągnięcia tej samej rzeczy.
  • Zakaz składania próśb o upload, jest do tego specjalny dział.
  • Zakaz wklejania hashcodów w treści komentarzy.
Wypowiedzi w komentarzach powinny być formułowane w sposób uprzejmy, z poszanowaniem innych użytkowników i ich stanowisk.

Autor:
Treść:

+ - | b u i

Możesz jeszcze wpisać: znaków.

Żaden z plików nie znajduje się na serwerze. Hashcody są własnością użytkowników. Administrator serwisu nie może ponieść konsekwencji za to co użytkownicy wstawiają lub za to co czynią na stronie.
Nie możesz używać tego serwisu do rozpowszechniania lub ściągania materiałów do których nie masz odpowiednich praw lub licencji. Użytkownicy odpowiedzialni są za przestrzeganie tych zasad.