Nasz serwis internetowy oraz podmioty z nim współpracujące takie jak reklamodawcy, firmy badające rynek, dostawcy usług oraz treści, korzystają z plików Cookies zapisywanych na Twoim urządzeniu w celach identyfikacyjnych, reklamowych oraz statystycznych. Dzięki temu możemy między innymi dostosować wygląd strony do indywidualnych potrzeb użytkowników. W przeglądarce internetowej możesz zmienić ustawienia dotyczące Cookies. Instrukcje zmiany ustawień dla najpopularniejszych przeglądarek znajdziesz tutaj: Chrome, Firefox, Internet Explorer, Opera i Safari. Jeżeli nie wyrażasz zgody na wykorzystywanie przez nas mechanizmu Cookies, wyłącz ich obsługę w ustawieniach swojej przeglądarki.
Więcej informacji możesz znaleźć w Informacje o plikach cookies.
Haszkod.pl - Strona główna
szukaj
| |


Atlantic Rim [720p][Lektor PL/ENG] [2013]

Atlantic Rim [720p][Lektor PL/ENG] [2013]
sprawność: 93%
Zdobądź lepszą rangę,
aby oceniać haszkody.

Pokaż hashcode

Zaloguj się!

Dopiero po utworzeniu konta w serwisie, możliwe jest korzystanie z zawartości.

Rejestracja!
Dodał: mlody999
Należy pobrać przez: MailShare
Kategoria: Filmy Rozmiar: 2,72 GB
Podkategoria: 1080p / 720p Pobrań: 151
Data dodania: 16-08-2013 15:33 Data premiery: 09 lipca 2013



Świat staje u progu zagłady, gdy z głębin Oceanu Atlantyckiego wynurzają się potwory. Ludzkość mogą uratować gigantyczne roboty, które są pilotowane przez specjalnie wyszkolonych żołnierzy.




General
Unique ID : 211297680882692721067674309250852489052 (0x9EF673FCFEDBEE2DB5C84F30399E875C)
Format : Matroska
Format version : Version 4 / Version 2
File size : 2.51 GiB
Duration : 1h 25mn
Overall bit rate : 4 209 Kbps
Movie name : [email protected]
Encoded date : UTC 2013-08-15 12:00:32
Writing application : mkvmerge v6.2.0 ('Promised Land') built on Apr 28 2013 12:22:01
Writing library : libebml v1.3.0 + libmatroska v1.4.0

Video
ID : 1
Format : AVC
Format/Info : Advanced Video Codec
Format profile : [email protected]
Format settings, CABAC : Yes
Format settings, ReFrames : 5 frames
Codec ID : V_MPEG4/ISO/AVC
Duration : 1h 25mn
Bit rate : 2 360 Kbps
Width : 1 280 pixels
Height : 720 pixels
Display aspect ratio : 16:9
Frame rate mode : Constant
Frame rate : 23.976 fps
Color space : YUV
Chroma subsampling : 4:2:0
Bit depth : 8 bits
Scan type : Progressive
Bits/(Pixel*Frame) : 0.107
Stream size : 1.41 GiB (56%)
Title : [email protected]
Writing library : x264 core 133 r2334 a3ac64b
Encoding settings : cabac=1 / ref=5 / deblock=1:-1:-1 / analyse=0x3:0x133 / me=umh / subme=7 / psy=1 / psy_rd=1.00:0.15 / mixed_ref=1 / me_range=16 / chroma_me=1 / trellis=1 / 8x8dct=1 / cqm=0 / deadzone=21,11 / fast_pskip=0 / chroma_qp_offset=-3 / threads=9 / lookahead_threads=1 / sliced_threads=0 / nr=0 / decimate=1 / interlaced=0 / bluray_compat=0 / constrained_intra=0 / bframes=3 / b_pyramid=2 / b_adapt=1 / b_bias=0 / direct=1 / weightb=1 / open_gop=0 / weightp=2 / keyint=250 / keyint_min=23 / scenecut=40 / intra_refresh=0 / rc_lookahead=40 / rc=crf / mbtree=1 / crf=20.0 / qcomp=0.60 / qpmin=0 / qpmax=69 / qpstep=4 / ip_ratio=1.40 / aq=1:1.00
Language : English
Default : Yes
Forced : No

Audio #1
ID : 2
Format : DTS
Format/Info : Digital Theater Systems
Mode : 16
Format settings, Endianness : Big
Codec ID : A_DTS
Duration : 1h 25mn
Bit rate mode : Constant
Bit rate : 1 509 Kbps
Channel(s) : 6 channels
Channel positions : Front: L C R, Side: L R, LFE
Sampling rate : 48.0 KHz
Bit depth : 16 bits
Compression mode : Lossy
Stream size : 922 MiB (36%)
Title : [email protected]
Language : English
Default : Yes
Forced : No

Audio #2
ID : 3
Format : AC-3
Format/Info : Audio Coding 3
Mode extension : CM (complete main)
Format settings, Endianness : Big
Codec ID : A_AC3
Duration : 1h 25mn
Bit rate mode : Constant
Bit rate : 256 Kbps
Channel(s) : 2 channels
Channel positions : Front: L R
Sampling rate : 48.0 KHz
Bit depth : 16 bits
Compression mode : Lossy
Delay relative to video : 200ms
Stream size : 156 MiB (6%)
Language : Polish
Default : No
Forced : No









































Pliki trzymam na dysku tydzień od wstawienia, po upływie tego czasu nie naprawiam uploadów.
ostatnia modyfikacja: 16 sierpnia 2013, 21:54 (nazwa // edited by vasper)
Inne podobne haszkody dostępne w serwisie:
NazwaKategoriaSprawnośćRozmiarDodano
Pacific Rim: Rebelia / Pacific Rim 2 Uprising..Filmy99%2,47 GB18-05-2018
Pacific Rim: Rebelia / Pacific Rim: Uprising ..Filmy98%700 MB06-05-2018
Pacific Rim: Rebelia / Pacific Rim: Uprising ..Filmy99%700 MB24-07-2018
Convoy War For The Atlantic [TVRip] [2009][Le..Filmy91%1,58 GB08-10-2011
Silent Hunter 5: Battle of the Atlantic + Spo..Gry98%4,30 GB01-04-2012
Najwyżej ocenionione komentarze:
To nie jest czasem jakaś marna podróbka Pacific Rim? o.O

5

1 0

16.08.2013
Szkoda czasu. Film klasy B

1

1 0

17.08.2013
Komentarze użytkowników:
W filmie jest do wyboru język angielski lub lektor PL :)

1

1 0

16.08.2013
To nie jest czasem jakaś marna podróbka Pacific Rim? o.O

5

1 0

16.08.2013
@butcher066 < ma racje (niestety)

0

1 0

17.08.2013
Szkoda czasu. Film klasy B

1

1 0

17.08.2013
hhihihi...no tak Atlantic Rim to nie to samo co Pacific Rim, ja się połasiłem, ale film w koszu bez oglądania - choć ściągneło się z uszkodzonym part 2 - naprawa nie pomogła, ale dalej nie ściagam - wolę poczekać na oryginał

0

1 0

17.08.2013
Żaden z plików nie znajduje się na serwerze. Hashcody są własnością użytkowników. Administrator serwisu nie może ponieść konsekwencji za to co użytkownicy wstawiają lub za to co czynią na stronie.
Nie możesz używać tego serwisu do rozpowszechniania lub ściągania materiałów do których nie masz odpowiednich praw lub licencji. Użytkownicy odpowiedzialni są za przestrzeganie tych zasad.