Nasz serwis internetowy oraz podmioty z nim współpracujące takie jak reklamodawcy, firmy badające rynek, dostawcy usług oraz treści, korzystają z plików Cookies zapisywanych na Twoim urządzeniu w celach identyfikacyjnych, reklamowych oraz statystycznych. Dzięki temu możemy między innymi dostosować wygląd strony do indywidualnych potrzeb użytkowników. W przeglądarce internetowej możesz zmienić ustawienia dotyczące Cookies. Instrukcje zmiany ustawień dla najpopularniejszych przeglądarek znajdziesz tutaj: Chrome, Firefox, Internet Explorer, Opera i Safari. Jeżeli nie wyrażasz zgody na wykorzystywanie przez nas mechanizmu Cookies, wyłącz ich obsługę w ustawieniach swojej przeglądarki.
Więcej informacji możesz znaleźć w Informacje o plikach cookies.
Haszkod.pl - Strona główna
szukaj
| |


Baczyński [HDTV] [2013][PL]

Baczyński [HDTV] [2013][PL]
sprawność: 93%
Zdobądź lepszą rangę,
aby oceniać haszkody.

Pokaż hashcode

Zaloguj się!

Dopiero po utworzeniu konta w serwisie, możliwe jest korzystanie z zawartości.

Rejestracja!
Dodał: mlody999
Należy pobrać przez: MailShare
Kategoria: Filmy Rozmiar: 758 MB
Podkategoria: High Quality Pobrań: 112
Data dodania: 08-08-2013 14:06 Data premiery: 15 marca 2013



"Baczyński" ma wiele warstw. Z jednej strony to opowieść o poecie i jego postrzeganiu rzeczywistości, o potrzebie wystawiania się na śmiertelną próbę, by się spełnić i tworzyć. Z drugiej - o bezsensie wojny i sztuce, która jest ponadczasowa i nieśmiertelna. Podróż przez ostatnie lata życia wielkiego poety zamyka klamrą współczesne wydarzenie - slam poetycki zorganizowany w 2011 roku, w dziewięćdziesiątą rocznicę urodzin Baczyńskiego. Narrację filmu budują wiersze poety, relacje świadków wydarzeń sprzed lat, którzy znali go osobiście, oraz wypowiedzi młodych ludzi zafascynowanych jego twórczością. To film poetycko-biograficzny, który wymyka się znanemu dotychczas podziałowi na gatunki, kanonowi postrzegania dzieł filmowych. Zagadkowy i wieloznaczny jak poezja i życie Krzysztofa Kamila Baczyńskiego. Każdy odbierze go po swojemu, zinterpretuje na własne potrzeby, będzie miał inne refleksje, odczucia. "Baczyński" jest pierwszą filmową próbą odpowiedzi na pytania dotyczące Krzysztofa Kamila Baczyńskiego. Jakim był człowiekiem? Ile w jego życiu znaczyła miłość, wyobcowanie, wojna i okupacja? Co go inspirowało, pod wpływem jakich wydarzeń tworzył i dlaczego zginął tak młodo? Reżyser filmu, Kordian Piwowarski, poszukując klucza do motywacji tytułowego bohatera, znalazł człowieka nierozerwalnie związanego ze swoją twórczością. Postawa i decyzje Baczyńskiego były odzwierciedleniem tego, co pisał w wierszach, a sedno jego twórczości stanowiły lęki, pragnienia i wątpliwości, które nim targały. Poezja nadała sens jego życiu i śmierci, uwieczniła go jako legendę.





General
Format : AVI
Format/Info : Audio Video Interleave
File size : 694 MiB
Duration : 1h 5mn
Overall bit rate : 1 493 Kbps
Writing library : VirtualDub build 32842/release

Video
ID : 0
Format : MPEG-4 Visual
Format profile : Advanced [email protected]
Format settings, BVOP : 2
Format settings, QPel : No
Format settings, GMC : No warppoints
Format settings, Matrix : Default (H.263)
Muxing mode : Packed bitstream
Codec ID : XVID
Codec ID/Hint : XviD
Duration : 1h 5mn
Bit rate : 1 355 Kbps
Width : 640 pixels
Height : 360 pixels
Display aspect ratio : 16:9
Frame rate : 25.000 fps
Color space : YUV
Chroma subsampling : 4:2:0
Bit depth : 8 bits
Scan type : Progressive
Compression mode : Lossy
Bits/(Pixel*Frame) : 0.235
Stream size : 630 MiB (91%)
Writing library : XviD 64

Audio
ID : 1
Format : MPEG Audio
Format version : Version 1
Format profile : Layer 3
Mode : Joint stereo
Codec ID : 55
Codec ID/Hint : MP3
Duration : 1h 5mn
Bit rate mode : Constant
Bit rate : 128 Kbps
Channel(s) : 2 channels
Sampling rate : 48.0 KHz
Compression mode : Lossy
Stream size : 59.6 MiB (9%)
Alignment : Split accross interleaves
Interleave, duration : 40 ms (1.00 video frame)
Interleave, preload duration : 500 ms


































Pliki trzymam na dysku tydzień od wstawienia, po upływie tego czasu nie naprawiam uploadów.
ostatnia modyfikacja: 27 sierpnia 2013, 00:07 (Zmiana okładki. // edited by WUJAXP)
Inne podobne haszkody dostępne w serwisie:
NazwaKategoriaSprawnośćRozmiarDodano
Baczyński [1080p] [2013][PL]Filmy92%3,00 GB25-03-2014
Stargate.Universe.S01E05.Light.HDTV.XviD-FQM ..Archiwum50%350 MB02-11-2009
Stargate.Universe.S01E06.HDTV.XviD-XIIArchiwum50%350 MB03-11-2009
Dragon Ball Kai Episode 002 Sub-PL HDTV [2009..Archiwum50%381 MB16-11-2009
Heroes S04E04 Acceptance HDTV [2009][ENG]Archiwum50%349 MB16-11-2009
Najwyżej ocenionione komentarze:
Film został pobrany i rozpakowany bez problemu. Wszystko OK

1

1 0

09.08.2013
Wszystko ok :)

1

1 0

17.08.2013
Komentarze użytkowników:
Film został pobrany i rozpakowany bez problemu. Wszystko OK

1

1 0

09.08.2013
Wszystko ok :)

1

1 0

17.08.2013
Dodaj komentarz:
Zasady pisania komentarzy w serwisie Haszkod.pl :
  • Zakaz podawania adresów stron o podobnej tematyce.
  • Zakaz wklejania linków do alternatywnej metody ściągnięcia tej samej rzeczy.
  • Zakaz składania próśb o upload, jest do tego specjalny dział.
  • Zakaz wklejania hashcodów w treści komentarzy.
Wypowiedzi w komentarzach powinny być formułowane w sposób uprzejmy, z poszanowaniem innych użytkowników i ich stanowisk.

Autor:
Treść:

+ - | b u i

Możesz jeszcze wpisać: znaków.

Żaden z plików nie znajduje się na serwerze. Hashcody są własnością użytkowników. Administrator serwisu nie może ponieść konsekwencji za to co użytkownicy wstawiają lub za to co czynią na stronie.
Nie możesz używać tego serwisu do rozpowszechniania lub ściągania materiałów do których nie masz odpowiednich praw lub licencji. Użytkownicy odpowiedzialni są za przestrzeganie tych zasad.