Nasz serwis internetowy oraz podmioty z nim współpracujące takie jak reklamodawcy, firmy badające rynek, dostawcy usług oraz treści, korzystają z plików Cookies zapisywanych na Twoim urządzeniu w celach identyfikacyjnych, reklamowych oraz statystycznych. Dzięki temu możemy między innymi dostosować wygląd strony do indywidualnych potrzeb użytkowników. W przeglądarce internetowej możesz zmienić ustawienia dotyczące Cookies. Instrukcje zmiany ustawień dla najpopularniejszych przeglądarek znajdziesz tutaj: Chrome, Firefox, Internet Explorer, Opera i Safari. Jeżeli nie wyrażasz zgody na wykorzystywanie przez nas mechanizmu Cookies, wyłącz ich obsługę w ustawieniach swojej przeglądarki.
Więcej informacji możesz znaleźć w Informacje o plikach cookies.
Haszkod.pl - Strona główna
szukaj
| |


Bardzo dziki Zachód / Wild Wild West [BRRip] [1999][Lektor PL]

Bardzo dziki Zachód / Wild Wild West [BRRip] [1999][Lektor PL]
sprawność: 93%
Zdobądź lepszą rangę,
aby oceniać haszkody.

Pokaż hashcode

Zaloguj się!

Dopiero po utworzeniu konta w serwisie, możliwe jest korzystanie z zawartości.

Rejestracja!
Dodał: Xses
Należy pobrać przez: Moorhunt
Kategoria: Filmy Rozmiar: 2,02 GB
Podkategoria: High Quality Pobrań: 122
Data dodania: 29-01-2013 14:21 Data premiery: 30 czerwca 1999
James West (Smith), czarujący i sprytny agent rządowy oraz towarzyszący mu Artemus Gordon (Kline), mistrz kamuflażu i specjalista od gadżetów wszelkich rodzajów, wyruszają razem w pościg za diabolicznym Dr Arlissem Loveless (Branagh). Loveless planuje zamach na życie prezydenta Stanów Zjednoczonych, do czego zamierza także wykorzystać swoją ogromną, chodzącą broń zwaną Tarantulą. Początkowo West i Gordon odnoszą się do siebie mało przychylnie, jednak z czasem zaczynają dostrzegać pozytywne skutki swojej współpracy. Piękna i tajemnicza aktoreczka Rita Escobar (Hayek) wywraca do góry nogami ich plan, kiedy postanawia pomóc im w schwytaniu Lovelessa. Dr Arliss ma w zanadrzu ukryty arsenał środków, którymi będzie starał się powstrzymać stróżów prawa. Ma do pomocy między innymi zabójczo piękne: pannę East (Bai Ling), Amazonię (Frederique Van Der Wal), Munitię (Musetta Vander) oraz pannę Lippenreider (Sofia Eng), których wyjątkowe atrybuty są śmiertelnym zagrożeniem dla Westa i Gordona.










Parametry:
Format : AVI
Format/Info : Audio Video Interleave
File size : 1.85 GiB
Duration : 1h 46mn
Overall bit rate : 2 493 Kbps

Video
ID : 0
Format : MPEG-4 Visual
Format profile : Advanced [email protected]
Format settings, BVOP : No
Format settings, QPel : No
Format settings, GMC : No warppoints
Format settings, Matrix : Default (MPEG)
Codec ID : XVID
Codec ID/Hint : XviD
Duration : 1h 46mn
Bit rate : 2 100 Kbps
Width : 720 pixels
Height : 400 pixels
Display aspect ratio : 16:9
Frame rate : 23.976 fps
Color space : YUV
Chroma subsampling : 4:2:0
Bit depth : 8 bits
Scan type : Progressive
Compression mode : Lossy
Bits/(Pixel*Frame) : 0.304
Stream size : 1.55 GiB (84%)
Writing library : XviD 1.2.1 (UTC 2008-12-04)

Audio
ID : 1
Format : AC-3
Format/Info : Audio Coding 3
Mode extension : CM (complete main)
Format settings, Endianness : Big
Codec ID : 2000
Duration : 1h 46mn
Source duration : 1h 46mn
Bit rate mode : Constant
Bit rate : 384 Kbps
Channel(s) : 6 channels
Channel positions : Front: L C R, Side: L R, LFE
Sampling rate : 48.0 KHz
Bit depth : 16 bits
Compression mode : Lossy
Stream size : 291 MiB (15%)
Alignment : Aligned on interleaves
Interleave, duration : 42 ms (1.00 video frame)



+ 10% danych naprawczych
ostatnia modyfikacja: 29 stycznia 2013, 13:39 (haszkod- skrzynki)
Inne podobne haszkody dostępne w serwisie:
NazwaKategoriaSprawnośćRozmiarDodano
Bardzo dziki kraj / Wild Wild Country [SEZON ..Filmy88%3,07 GB05-04-2018
Sophie: Morderstwo w West Cork / Sophie: A Mu..Filmy75%5,81 GB13-07-2021
Bartłomiej Ludwisiak - Zachód słońca nad klif..Dokumenty88%644 MB19-08-2021
Wiedźmin 3: Dziki Gon / The Witcher 3: Wild H..Muzyka98%173 MB01-06-2015
Dziki Bill / Wild Bill [SEZON 1][480p][WEB-DL..Filmy88%3,88 GB02-12-2019
Najwyżej ocenionione komentarze:
Komentarze użytkowników:
starsznie!!!! wolno pobiera.

0

1 0

30.01.2013
Masakra lektor nic nie słychać

0

1 0

02.02.2013
Dodaj komentarz:
Zasady pisania komentarzy w serwisie Haszkod.pl :
  • Zakaz podawania adresów stron o podobnej tematyce.
  • Zakaz wklejania linków do alternatywnej metody ściągnięcia tej samej rzeczy.
  • Zakaz składania próśb o upload, jest do tego specjalny dział.
  • Zakaz wklejania hashcodów w treści komentarzy.
Wypowiedzi w komentarzach powinny być formułowane w sposób uprzejmy, z poszanowaniem innych użytkowników i ich stanowisk.

Autor:
Treść:

+ - | b u i

Możesz jeszcze wpisać: znaków.

Żaden z plików nie znajduje się na serwerze. Hashcody są własnością użytkowników. Administrator serwisu nie może ponieść konsekwencji za to co użytkownicy wstawiają lub za to co czynią na stronie.
Nie możesz używać tego serwisu do rozpowszechniania lub ściągania materiałów do których nie masz odpowiednich praw lub licencji. Użytkownicy odpowiedzialni są za przestrzeganie tych zasad.