Nasz serwis internetowy oraz podmioty z nim współpracujące takie jak reklamodawcy, firmy badające rynek, dostawcy usług oraz treści, korzystają z plików Cookies zapisywanych na Twoim urządzeniu w celach identyfikacyjnych, reklamowych oraz statystycznych. Dzięki temu możemy między innymi dostosować wygląd strony do indywidualnych potrzeb użytkowników. W przeglądarce internetowej możesz zmienić ustawienia dotyczące Cookies. Instrukcje zmiany ustawień dla najpopularniejszych przeglądarek znajdziesz tutaj: Chrome, Firefox, Internet Explorer, Opera i Safari. Jeżeli nie wyrażasz zgody na wykorzystywanie przez nas mechanizmu Cookies, wyłącz ich obsługę w ustawieniach swojej przeglądarki.
Więcej informacji możesz znaleźć w Informacje o plikach cookies.
Haszkod.pl - Strona główna
szukaj
| |
Haszkod jest możliwy do pobrania za pomocą programu Mailshare.


Dragon Ball GT odc.16-40 Bebi saga [RMVB] [1989][Lektor PL]

Dragon Ball GT odc.16-40 Bebi saga [RMVB] [1989][Lektor PL]
sprawność: 88%
Zdobądź lepszą rangę,
aby oceniać haszkody.

Pokaż hashcode

Zaloguj się!

Dopiero po utworzeniu konta w serwisie, możliwe jest korzystanie z zawartości.

Rejestracja!
Dodał: michalsk11
Należy pobrać przez: Ygoow
Kategoria: Filmy Rozmiar: 1,61 GB
Podkategoria: Sezony Pobrań: 54
Data dodania: 16-04-2012 16:44 Data premiery: 01 stycznia 1989

Wspaniała saga słynnego anime DRAGON BALL


!!! 10% DANE NAPRAWCZE !!!

Jest to wersja na ekrany 16:9 full screen

WSZYSTKIE ODCINKI W ŚWIETNEJ JAKOŚCI RMVB=JEDEN ODCINEK ok 90mb

Format : RealMedia
File size : 56.5 MiB
Duration : 17mn 57s
Overall bit rate : 433 Kbps

Video
ID : 1
Format : RealVideo 4
Codec ID : RV40
Codec ID/Info : Based on AVC (H.264), Real Player 9
Duration : 17mn 57s
Bit rate : 369 Kbps
Width : 576 pixels
Height : 320 pixels
Display aspect ratio : 16:9
Frame rate : 25.000 fps
Bits/(Pixel*Frame) : 0.080
Stream size : 47.3 MiB (84%)

Audio
ID : 0
Format : Cooker
Codec ID : cook
Codec ID/Info : Based on G.722.1, Real Player 6
Duration : 17mn 57s
Bit rate : 64.1 Kbps
Channel(s) : 2 channels
Sampling rate : 44.1 KHz
Bit depth : 16 bits
Stream size : 8.23 MiB (15%)

Moje screeny






ostatnia modyfikacja: 07 sierpnia 2013, 15:32 (gatunek // edited by vasper)
Inne podobne haszkody dostępne w serwisie:
NazwaKategoriaSprawnośćRozmiarDodano
Dragon Ball Z - odc.36-107 Frezer saga [RMVB]..Filmy97%6,33 GB23-03-2012
Dragon Ball Z - odc.195-291 Bubu Saga [RMVB] ..Filmy97%7,96 GB12-04-2012
Dragon Ball Z - odc.118-194 Komurczak saga [R..Filmy97%6,89 GB28-03-2012
Dragon Ball Z - odc.108-117 Garlic junior sag..Filmy97%887 MB24-03-2012
Dragon Ball GT odc.1-15 Black star saga [RMVB..Filmy86%980 MB14-04-2012
Najwyżej ocenionione komentarze:
i jak tam z resztą odcinków Michale ? kiedy wrzucisz bo czekam juz z niecierpliwością :D

1

1 0

24.04.2012
Komentarze użytkowników:
oczywiście jak zwykle wszystko śmiga dzięki za wstawke i polecam wszystkim fanom:D

0

1 0

17.04.2012
dokładnie j.w napisane pierwszą część GT źle przerobiłem i wyszło rozciągnięte ta już jest dobrze dopasowana

0

1 0

20.04.2012
jutro dopiero bedzie android era :) niestety mialem problemy z netem :(...

0

1 0

20.04.2012
i jak tam z resztą odcinków Michale ? kiedy wrzucisz bo czekam juz z niecierpliwością :D

1

1 0

24.04.2012
Proszę bardzo Dragon Ball GT cały
http://www.haszkod.pl/fil...goow,38380.html

0

1 0

24.04.2012
dzieki DerDe :P

0

1 0

24.04.2012
Dodaj komentarz:
Zasady pisania komentarzy w serwisie Haszkod.pl :
  • Zakaz podawania adresów stron o podobnej tematyce.
  • Zakaz wklejania linków do alternatywnej metody ściągnięcia tej samej rzeczy.
  • Zakaz składania próśb o upload, jest do tego specjalny dział.
  • Zakaz wklejania hashcodów w treści komentarzy.
Wypowiedzi w komentarzach powinny być formułowane w sposób uprzejmy, z poszanowaniem innych użytkowników i ich stanowisk.

Autor:
Treść:

+ - | b u i

Możesz jeszcze wpisać: znaków.

Żaden z plików nie znajduje się na serwerze. Hashcody są własnością użytkowników. Administrator serwisu nie może ponieść konsekwencji za to co użytkownicy wstawiają lub za to co czynią na stronie.
Nie możesz używać tego serwisu do rozpowszechniania lub ściągania materiałów do których nie masz odpowiednich praw lub licencji. Użytkownicy odpowiedzialni są za przestrzeganie tych zasad.