Nasz serwis internetowy oraz podmioty z nim współpracujące takie jak reklamodawcy, firmy badające rynek, dostawcy usług oraz treści, korzystają z plików Cookies zapisywanych na Twoim urządzeniu w celach identyfikacyjnych, reklamowych oraz statystycznych. Dzięki temu możemy między innymi dostosować wygląd strony do indywidualnych potrzeb użytkowników. W przeglądarce internetowej możesz zmienić ustawienia dotyczące Cookies. Instrukcje zmiany ustawień dla najpopularniejszych przeglądarek znajdziesz tutaj: Chrome, Firefox, Internet Explorer, Opera i Safari. Jeżeli nie wyrażasz zgody na wykorzystywanie przez nas mechanizmu Cookies, wyłącz ich obsługę w ustawieniach swojej przeglądarki.
Więcej informacji możesz znaleźć w Informacje o plikach cookies.
Haszkod.pl - Strona główna
szukaj
| |


Dragon Ball Kai: Cell Saga [NAPISY PL][JPN] [DVDRip] [2009]

Dragon Ball Kai: Cell Saga [NAPISY PL][JPN] [DVDRip] [2009]
sprawność: 84%
Zdobądź lepszą rangę,
aby oceniać haszkody.

Pokaż hashcode

Zaloguj się!

Dopiero po utworzeniu konta w serwisie, możliwe jest korzystanie z zawartości.

Rejestracja!
Dodał: deszczyk
Należy pobrać przez: MailDownloader
Kategoria: Filmy Rozmiar: 5,49 GB
Podkategoria: High Quality Pobrań: 36
Data dodania: 07-11-2016 16:11 Data premiery: 05 kwietnia 2009













• Dragon Ball [WEBRip][1986][Lektor PL]
http://www.haszkod.pl/fil...ader,59842.html

• Dragon Ball Z [WEBRip][1989][Lektor PL]
http://www.haszkod.pl/fil...ader,59876.html

• Dragon Ball GT [WEBRip][1996][Lektor PL]
http://www.haszkod.pl/fil...ader,59885.html

• Dragon Ball Kai: Saga Saiyan [NAPISY PL][JPN] [DVDRip][2009]
http://www.haszkod.pl/fil...ader,59891.html

• Dragon Ball Kai: Friezzer Saga [NAPISY PL][JPN] [DVDRip][2009]
http://www.haszkod.pl/fil...ader,59895.html

• Dragon Ball Kai: Cell Saga [NAPISY PL][JPN] [DVDRip][2009]
http://www.haszkod.pl/fil...ader,59900.html

• Dragon Ball Kai: Majin Buu Saga [NAPISY PL][JPN][DVDRip][2009]
http://www.haszkod.pl/fil...ader,59906.html






Minęły 3 lata od momentu, gdy przybył Trunks z przyszłśoci. Najważniejszą zmianą jaka zaszła na Ziemi jest fakt zyskania przez nią nowego, potężnego sojusznika - Vegetę. Narodził się również współczesny Trunks, dlatego aby uniknąć pomyłek, Trunksa z przyszłości nazwano Future. Zgodnie z tym co powiedział on 3 lata wcześniej pojawiają się Androidy. Okazuje się, że oprócz cyborgów #17 i #18, które istnieją w przyszłości na Ziemię przybył również nieznany Android #16. Pojawia się również ich twórca dr Gero jako cyborg C20 i jego asystent Jinzo Ningen Jukugu (cyborg nr 19).











Format : MPEG-4
Format profile : Base Media
Codec ID : isom (isom)
File size : 120 MiB
Duration : 23mn 25s
Overall bit rate mode : Variable
Overall bit rate : 717 Kbps
Encoded date : UTC 2010-05-09 08:09:42
Tagged date : UTC 2010-05-09 08:09:42
Writing application : Yamb 2.1.0.0 [http://yamb.unite-video.com]

Video
ID : 1
Format : AVC
Format/Info : Advanced Video Codec
Format profile : [email protected]
Format settings, CABAC : Yes
Format settings, ReFrames : 12 frames
Codec ID : avc1
Codec ID/Info : Advanced Video Coding
Duration : 23mn 25s
Bit rate : 600 Kbps
Maximum bit rate : 3 742 Kbps
Width : 852 pixels
Height : 480 pixels
Display aspect ratio : 16:9
Frame rate mode : Constant
Frame rate : 25.000 fps
Color space : YUV
Chroma subsampling : 4:2:0
Bit depth : 8 bits
Scan type : Progressive
Bits/(Pixel*Frame) : 0.059
Stream size : 100 MiB (84%)

Audio
ID : 2
Format : AAC
Format/Info : Advanced Audio Codec
Format profile : LC
Codec ID : 40
Duration : 23mn 24s
Bit rate mode : Variable
Bit rate : 113 Kbps
Maximum bit rate : 173 Kbps
Channel(s) : 2 channels
Channel positions : Front: L R
Sampling rate : 48.0 KHz
Frame rate : 46.875 fps (1024 spf)
Compression mode : Lossy
Stream size : 18.9 MiB (16%)







ostatnia modyfikacja: 10 listopada 2016, 11:47 (Opis.)
Inne podobne haszkody dostępne w serwisie:
NazwaKategoriaSprawnośćRozmiarDodano
Dragon Ball Kai: Saga Saiyan [NAPISY PL][JPN]..Filmy84%2,56 GB06-11-2016
Dragon Ball Kai: Friezzer Saga [NAPISY PL][JP..Filmy75%5,76 GB07-11-2016
Dragon Ball Kai: Majin Buu Saga [NAPISY PL][J..Filmy94%13,77 GB08-11-2016
Dragon Ball Kai - Saga Buu [E02][Napisy PL][7..Filmy93%352 MB17-04-2014
Dragon Ball Kai - Saga Buu [E05][Napisy PL][7..Filmy96%349 MB07-05-2014
Najwyżej ocenionione komentarze:
Komentarze użytkowników:
UP OK

0

1 0

12.11.2016
Dodaj komentarz:
Zasady pisania komentarzy w serwisie Haszkod.pl :
  • Zakaz podawania adresów stron o podobnej tematyce.
  • Zakaz wklejania linków do alternatywnej metody ściągnięcia tej samej rzeczy.
  • Zakaz składania próśb o upload, jest do tego specjalny dział.
  • Zakaz wklejania hashcodów w treści komentarzy.
Wypowiedzi w komentarzach powinny być formułowane w sposób uprzejmy, z poszanowaniem innych użytkowników i ich stanowisk.

Autor:
Treść:

+ - | b u i

Możesz jeszcze wpisać: znaków.

Żaden z plików nie znajduje się na serwerze. Hashcody są własnością użytkowników. Administrator serwisu nie może ponieść konsekwencji za to co użytkownicy wstawiają lub za to co czynią na stronie.
Nie możesz używać tego serwisu do rozpowszechniania lub ściągania materiałów do których nie masz odpowiednich praw lub licencji. Użytkownicy odpowiedzialni są za przestrzeganie tych zasad.