Nasz serwis internetowy oraz podmioty z nim współpracujące takie jak reklamodawcy, firmy badające rynek, dostawcy usług oraz treści, korzystają z plików Cookies zapisywanych na Twoim urządzeniu w celach identyfikacyjnych, reklamowych oraz statystycznych. Dzięki temu możemy między innymi dostosować wygląd strony do indywidualnych potrzeb użytkowników. W przeglądarce internetowej możesz zmienić ustawienia dotyczące Cookies. Instrukcje zmiany ustawień dla najpopularniejszych przeglądarek znajdziesz tutaj: Chrome, Firefox, Internet Explorer, Opera i Safari. Jeżeli nie wyrażasz zgody na wykorzystywanie przez nas mechanizmu Cookies, wyłącz ich obsługę w ustawieniach swojej przeglądarki.
Więcej informacji możesz znaleźć w Informacje o plikach cookies.
Haszkod.pl - Strona główna
szukaj
| |


Dragon Ball Kai: Majin Buu Saga [NAPISY PL][JPN] [DVDRip] [2009]

Dragon Ball Kai: Majin Buu Saga [NAPISY PL][JPN] [DVDRip] [2009]
sprawność: 94%
Zdobądź lepszą rangę,
aby oceniać haszkody.

Pokaż hashcode

Zaloguj się!

Dopiero po utworzeniu konta w serwisie, możliwe jest korzystanie z zawartości.

Rejestracja!
Dodał: deszczyk
Należy pobrać przez: MailDownloader
Kategoria: Filmy Rozmiar: 13,77 GB
Podkategoria: High Quality Pobrań: 50
Data dodania: 08-11-2016 13:35 Data premiery: 05 kwietnia 2009













• Dragon Ball [WEBRip][1986][Lektor PL]
http://www.haszkod.pl/fil...ader,59842.html

• Dragon Ball Z [WEBRip][1989][Lektor PL]
http://www.haszkod.pl/fil...ader,59876.html

• Dragon Ball GT [WEBRip][1996][Lektor PL]
http://www.haszkod.pl/fil...ader,59885.html

• Dragon Ball Kai: Saga Saiyan [NAPISY PL][JPN] [DVDRip][2009]
http://www.haszkod.pl/fil...ader,59891.html

• Dragon Ball Kai: Friezzer Saga [NAPISY PL][JPN] [DVDRip][2009]
http://www.haszkod.pl/fil...ader,59895.html

• Dragon Ball Kai: Cell Saga [NAPISY PL][JPN] [DVDRip][2009]
http://www.haszkod.pl/fil...ader,59900.html

• Dragon Ball Kai: Majin Buu Saga [NAPISY PL][JPN][DVDRip][2009]
http://www.haszkod.pl/fil...ader,59906.html






Minęło już 7 lat od pokonania Cell'a. W tym czasie przyszedł na świat drugi syn Son Goku i Chi Chi - Son Goten. Również Kuririn przestał być kawalerem i ożenił się z C18, zamienioną w człowieka dzięki Smoczym Kulom. Son Gohan związał się z córką Mr Satana, Videl. Dwóch wojowników - Supupo i Yamu będących na usługach Babidi'ego kradnie energię Gohanowi, gdy ten osiąga stopień SSJ2. Okazuje się, że podróżują oni po całej Galaktyce w poszukiwaniu maga Babidiego, który postanowił wskrzesić demona Buu i w ten sposób zapanować nad całym Wszechświatem.











Format : MPEG-4
Format profile : Base Media
Codec ID : isom (isom/iso2/avc1/mp41)
File size : 323 MiB
Duration : 23mn 24s
Overall bit rate : 1 931 Kbps
Writing application : Lavf54.59.106

Video
ID : 1
Format : AVC
Format/Info : Advanced Video Codec
Format profile : [email protected]
Format settings, CABAC : Yes
Format settings, ReFrames : 4 frames
Codec ID : avc1
Codec ID/Info : Advanced Video Coding
Duration : 23mn 24s
Bit rate : 1 800 Kbps
Width : 1 280 pixels
Height : 720 pixels
Display aspect ratio : 16:9
Frame rate mode : Constant
Frame rate : 25.000 fps
Color space : YUV
Chroma subsampling : 4:2:0
Bit depth : 8 bits
Scan type : Progressive
Bits/(Pixel*Frame) : 0.078
Stream size : 301 MiB (93%)
Writing library : x264 core 129


Audio
ID : 2
Format : AAC
Format/Info : Advanced Audio Codec
Format profile : LC
Codec ID : 40
Duration : 23mn 24s
Duration_LastFrame : -17ms
Bit rate mode : Constant
Bit rate : 128 Kbps
Channel(s) : 2 channels
Channel positions : Front: L R
Sampling rate : 44.1 KHz
Frame rate : 43.066 fps (1024 spf)
Compression mode : Lossy
Stream size : 21.4 MiB (7%)
Default : Yes
Alternate group : 1









ostatnia modyfikacja: 10 listopada 2016, 11:45 (Opis.)
Inne podobne haszkody dostępne w serwisie:
NazwaKategoriaSprawnośćRozmiarDodano
Dragon Ball Kai - Saga Buu [E02][Napisy PL][7..Filmy93%352 MB17-04-2014
Dragon Ball Kai - Saga Buu [E05][Napisy PL][7..Filmy96%349 MB07-05-2014
Dragon Ball Kai - Saga Buu [E09][Napisy PL][7..Filmy95%349 MB06-06-2014
Dragon Ball Kai - Saga Buu [E10][Napisy PL][7..Filmy94%354 MB14-06-2014
Dragon Ball Kai - Saga Buu [E58-59][Napisy PL..Filmy94%275 MB24-06-2015
Najwyżej ocenionione komentarze:
Part 452 (archiwum 452) należy usunąć i pobrać jeszcze raz.

Punkt 1:
https://www.haszkod.pl/artykuly,108,html

1

1 0

19.01.2020
Spróbuję zrobić reupload tych wstawek jak ogarnę działanie uploadowania przez MailExchange :D

1

1 0

20.01.2020
Komentarze użytkowników:
UP OK

0

1 0

12.11.2016
Nadal działa ale nie w 100%. Archiwum 452 jest uszkodzone ale mimo, że ma dane naprawcze a Winrar jest w wersji 5.7 to nie da się go naprawić. Ani żadnego innego. Odcinek 111 jest uszkodzony i działa do +/- połowy. Dodatkowo odcinki 118-126 nie wypakowują się automatycznie tylko musiałem je ręcznie wypakować. Coś dziwnego w każdym razie. Niestety na Haszkodzie nie ma już działających wrzutek z tym odcinkiem.

0

1 0

19.01.2020
Part 452 (archiwum 452) należy usunąć i pobrać jeszcze raz.

Punkt 1:
https://www.haszkod.pl/artykuly,108,html

1

1 0

19.01.2020
Spróbuję zrobić reupload tych wstawek jak ogarnę działanie uploadowania przez MailExchange :D

1

1 0

20.01.2020
Dodaj komentarz:
Zasady pisania komentarzy w serwisie Haszkod.pl :
  • Zakaz podawania adresów stron o podobnej tematyce.
  • Zakaz wklejania linków do alternatywnej metody ściągnięcia tej samej rzeczy.
  • Zakaz składania próśb o upload, jest do tego specjalny dział.
  • Zakaz wklejania hashcodów w treści komentarzy.
Wypowiedzi w komentarzach powinny być formułowane w sposób uprzejmy, z poszanowaniem innych użytkowników i ich stanowisk.

Autor:
Treść:

+ - | b u i

Możesz jeszcze wpisać: znaków.

Żaden z plików nie znajduje się na serwerze. Hashcody są własnością użytkowników. Administrator serwisu nie może ponieść konsekwencji za to co użytkownicy wstawiają lub za to co czynią na stronie.
Nie możesz używać tego serwisu do rozpowszechniania lub ściągania materiałów do których nie masz odpowiednich praw lub licencji. Użytkownicy odpowiedzialni są za przestrzeganie tych zasad.