Nasz serwis internetowy oraz podmioty z nim współpracujące takie jak reklamodawcy, firmy badające rynek, dostawcy usług oraz treści, korzystają z plików Cookies zapisywanych na Twoim urządzeniu w celach identyfikacyjnych, reklamowych oraz statystycznych. Dzięki temu możemy między innymi dostosować wygląd strony do indywidualnych potrzeb użytkowników. W przeglądarce internetowej możesz zmienić ustawienia dotyczące Cookies. Instrukcje zmiany ustawień dla najpopularniejszych przeglądarek znajdziesz tutaj: Chrome, Firefox, Internet Explorer, Opera i Safari. Jeżeli nie wyrażasz zgody na wykorzystywanie przez nas mechanizmu Cookies, wyłącz ich obsługę w ustawieniach swojej przeglądarki.
Więcej informacji możesz znaleźć w Informacje o plikach cookies.
Haszkod.pl - Strona główna
szukaj
| |


Dwadzieścia8k / Twenty8k [720p] [2012][Lektor PL]

Dwadzieścia8k / Twenty8k [720p] [2012][Lektor PL]
sprawność: 92%
Zdobądź lepszą rangę,
aby oceniać haszkody.

Pokaż hashcode

Zaloguj się!

Dopiero po utworzeniu konta w serwisie, możliwe jest korzystanie z zawartości.

Rejestracja!
Dodał: mlody999
Należy pobrać przez: MailShare
Kategoria: Filmy Rozmiar: 3,82 GB
Podkategoria: 1080p / 720p Pobrań: 58
Data dodania: 15-08-2013 17:48 Data premiery: 01 maja 2012



Po wiadomości o aresztowaniu brata, mieszkająca na stałe w Paryżu Deeva Jani (Parminder Nagra) decyduje się na powrót do rodzinnego miasta. Okazuje się, że Vipon (Sebastian Nanena) jest podejrzany o udział w strzelaninie, której ofiarą padł młody chłopak. Nastolatek szybko staje się medialnym kozłem ofiarnym, wzbudzającym coraz większą niechęć wśród lokalnej społeczności. Na domiar złego, rodzina zabitego grozi przebywającemu w areszcie Viponowi odwetem. Nie mając chwili do stracenia, Deeva wchodzi w układ z byłym członkiem gangu, Clintem (Jonas Armstrong), który ma pomóc w uniewinnieniu brata. Młoda kobieta starając się odkryć prawdę o tym, co tak naprawdę się wydarzyło, wchodzi w drogę wpływowemu i skorumpowanemu Edwardowi (Stephen Dillane). Nie wie, że w jego osobistym i politycznym interesie leży, by Vipon został uznany za winnego. Z im większym uporem Deeva dąży do odkrycia prawdy, z tym większą desperacją Stone stara się ochronić swoje brudne sekrety.




General
Unique ID : 194355017260442042780269259416610078792 (0x92376A2D9AE6B733B3836D8BAC690048)
Complete name : C:\Users\szymo_000\Downloads\Twent720PL\Twenty8k 2012 PL.720p.BluRay.x264.AC3-Zet.mkv
Format : Matroska
Format version : Version 4 / Version 2
File size : 3.44 GiB
Duration : 1h 46mn
Overall bit rate : 4 634 Kbps
Encoded date : UTC 2013-07-05 22:00:58
Writing application : mkvmerge v6.2.0 ('Promised Land') built on Apr 28 2013 12:22:01
Writing library : libebml v1.3.0 + libmatroska v1.4.0

Video
ID : 1
Format : AVC
Format/Info : Advanced Video Codec
Format profile : [email protected]
Format settings, CABAC : Yes
Format settings, ReFrames : 5 frames
Codec ID : V_MPEG4/ISO/AVC
Duration : 1h 46mn
Bit rate : 4 383 Kbps
Width : 1 280 pixels
Height : 544 pixels
Display aspect ratio : 2.35:1
Frame rate mode : Constant
Frame rate : 23.976 fps
Color space : YUV
Chroma subsampling : 4:2:0
Bit depth : 8 bits
Scan type : Progressive
Bits/(Pixel*Frame) : 0.263
Stream size : 3.18 GiB (92%)
Writing library : x264 core 125 r2200 999b753
Encoding settings : cabac=1 / ref=5 / deblock=1:0:0 / analyse=0x3:0x133 / me=umh / subme=7 / psy=1 / psy_rd=1.00:0.00 / mixed_ref=1 / me_range=16 / chroma_me=1 / trellis=1 / 8x8dct=1 / cqm=0 / deadzone=21,11 / fast_pskip=0 / chroma_qp_offset=-2 / threads=24 / lookahead_threads=4 / sliced_threads=0 / nr=0 / decimate=1 / interlaced=0 / bluray_compat=0 / constrained_intra=0 / bframes=3 / b_pyramid=2 / b_adapt=1 / b_bias=0 / direct=3 / weightb=1 / open_gop=0 / weightp=2 / keyint=240 / keyint_min=23 / scenecut=40 / intra_refresh=0 / rc_lookahead=40 / rc=2pass / mbtree=1 / bitrate=4383 / ratetol=1.0 / qcomp=0.60 / qpmin=10 / qpmax=51 / qpstep=4 / cplxblur=20.0 / qblur=0.5 / ip_ratio=1.40 / aq=1:1.00
Language : English
Default : Yes
Forced : No

Audio
ID : 2
Format : AC-3
Format/Info : Audio Coding 3
Mode extension : CM (complete main)
Format settings, Endianness : Big
Codec ID : A_AC3
Duration : 1h 46mn
Bit rate mode : Constant
Bit rate : 256 Kbps
Channel(s) : 2 channels
Channel positions : Front: L R
Sampling rate : 48.0 KHz
Bit depth : 16 bits
Compression mode : Lossy
Stream size : 195 MiB (6%)
Default : Yes
Forced : No









































Pliki trzymam na dysku tydzień od wstawienia, po upływie tego czasu nie naprawiam uploadów.
Inne podobne haszkody dostępne w serwisie:
NazwaKategoriaSprawnośćRozmiarDodano
Koe No Katachi / The Shape of Voice [x264][72..Filmy88%839 MB04-06-2017
Strefa śmierci / Sha po lang [720p] [720p] [2..Filmy50%4,58 GB30-09-2017
Gran Torino 720p [2008][ENG]Archiwum75%4,76 GB05-11-2009
Earth 720p BluRay x264 [2007][ENG]Archiwum85%4,37 GB23-11-2009
The Jeff Dunham Show S01E04 720P HDTV X264-DI..Filmy67%206 MB29-11-2009
Najwyżej ocenionione komentarze:
Tak patrzyłem na ostatniego screenshota i na pierwszy rzut oka zauważyłem Tuska :D

1

1 0

15.08.2013
Komentarze użytkowników:
Tak patrzyłem na ostatniego screenshota i na pierwszy rzut oka zauważyłem Tuska :D

1

1 0

15.08.2013
Żaden z plików nie znajduje się na serwerze. Hashcody są własnością użytkowników. Administrator serwisu nie może ponieść konsekwencji za to co użytkownicy wstawiają lub za to co czynią na stronie.
Nie możesz używać tego serwisu do rozpowszechniania lub ściągania materiałów do których nie masz odpowiednich praw lub licencji. Użytkownicy odpowiedzialni są za przestrzeganie tych zasad.