Nasz serwis internetowy oraz podmioty z nim współpracujące takie jak reklamodawcy, firmy badające rynek, dostawcy usług oraz treści, korzystają z plików Cookies zapisywanych na Twoim urządzeniu w celach identyfikacyjnych, reklamowych oraz statystycznych. Dzięki temu możemy między innymi dostosować wygląd strony do indywidualnych potrzeb użytkowników. W przeglądarce internetowej możesz zmienić ustawienia dotyczące Cookies. Instrukcje zmiany ustawień dla najpopularniejszych przeglądarek znajdziesz tutaj: Chrome, Firefox, Internet Explorer, Opera i Safari. Jeżeli nie wyrażasz zgody na wykorzystywanie przez nas mechanizmu Cookies, wyłącz ich obsługę w ustawieniach swojej przeglądarki.
Więcej informacji możesz znaleźć w Informacje o plikach cookies.
Haszkod.pl - Strona główna
szukaj
| |


Iron Man 3 [720p] [2013][Dubbing PL]

Iron Man 3 [720p] [2013][Dubbing PL]
sprawność: 98%
Zdobądź lepszą rangę,
aby oceniać haszkody.

Pokaż hashcode

Zaloguj się!

Dopiero po utworzeniu konta w serwisie, możliwe jest korzystanie z zawartości.

Rejestracja!
Dodał: mlody999
Należy pobrać przez: MailShare
Kategoria: Filmy Rozmiar: 4,63 GB
Podkategoria: 1080p / 720p Pobrań: 259
Data dodania: 20-09-2013 21:51 Data premiery: 18 kwietnia 2013



Niezastąpiony Robert Downey Jr. powraca w roli miliardera i genialnego wynalazcy Tony?ego Starka w trzeciej części historii ze świata Marvela ? "Iron Man 3". Świat Tony?ego Starka legł w gruzach w skutek podstępnych działań jednego z jego najpotężniejszych wrogów. W poszukiwaniu zemsty Stark wyrusza w podróż, która wystawi na próbę siłę jego charakteru i ducha walki. Przyparty do muru, znów może polegać wyłącznie na swojej pomysłowości i instynkcie. Wkrótce odkrywa odpowiedź na od dawna nurtujące go pytanie: czy to zbroja czyni superbohatera?




General
Unique ID : 204911714539619547768501638464018052251 (0x9A288F89F42DA512AA8561C49457F49B)
Format : Matroska
Format version : Version 4 / Version 2
File size : 4.16 GiB
Duration : 2h 10mn
Overall bit rate : 4 567 Kbps
Encoded date : UTC 2013-09-02 03:34:14
Writing application : mkvmerge v6.3.0 ('You can't stop me!') built on Jun 28 2013 20:09:41
Writing library : libebml v1.3.0 + libmatroska v1.4.0

Video
ID : 1
Format : AVC
Format/Info : Advanced Video Codec
Format profile : [email protected]
Format settings, CABAC : Yes
Format settings, ReFrames : 4 frames
Codec ID : V_MPEG4/ISO/AVC
Duration : 2h 10mn
Bit rate : 4 200 Kbps
Width : 1 280 pixels
Height : 528 pixels
Display aspect ratio : 2.40:1
Frame rate mode : Constant
Frame rate : 23.976 fps
Color space : YUV
Chroma subsampling : 4:2:0
Bit depth : 8 bits
Scan type : Progressive
Bits/(Pixel*Frame) : 0.259
Stream size : 3.73 GiB (90%)
Writing library : x264 core 130 r2273 b3065e6
Encoding settings : cabac=1 / ref=1 / deblock=1:0:0 / analyse=0x1:0x111 / me=hex / subme=2 / psy=1 / psy_rd=1.00:0.00 / mixed_ref=0 / me_range=16 / chroma_me=1 / trellis=0 / 8x8dct=0 / cqm=0 / deadzone=21,11 / fast_pskip=1 / chroma_qp_offset=0 / threads=12 / lookahead_threads=4 / sliced_threads=0 / nr=0 / decimate=1 / interlaced=0 / bluray_compat=0 / constrained_intra=0 / bframes=3 / b_pyramid=2 / b_adapt=1 / b_bias=0 / direct=1 / weightb=1 / open_gop=0 / weightp=1 / keyint=240 / keyint_min=24 / scenecut=40 / intra_refresh=0 / rc_lookahead=10 / rc=abr / mbtree=1 / bitrate=4200 / ratetol=1.0 / qcomp=0.60 / qpmin=0 / qpmax=69 / qpstep=4 / vbv_maxrate=50000 / vbv_bufsize=62500 / nal_hrd=none / ip_ratio=1.40 / aq=1:1.00
Language : English
Default : Yes
Forced : No
Color primaries : BT.709
Transfer characteristics : BT.709
Matrix coefficients : BT.709

Audio
ID : 2
Format : AC-3
Format/Info : Audio Coding 3
Mode extension : CM (complete main)
Format settings, Endianness : Big
Codec ID : A_AC3
Duration : 2h 10mn
Bit rate mode : Constant
Bit rate : 384 Kbps
Channel(s) : 6 channels
Channel positions : Front: L C R, Side: L R, LFE
Sampling rate : 48.0 KHz
Bit depth : 16 bits
Compression mode : Lossy
Stream size : 359 MiB (8%)
Language : Polish
Default : Yes
Forced : No



































Pliki trzymam na dysku tydzień od wstawienia, po upływie tego czasu nie naprawiam uploadów.
Inne podobne haszkody dostępne w serwisie:
NazwaKategoriaSprawnośćRozmiarDodano
Iron Sky. Inwazja / Iron Sky: The Coming Race..Filmy97%702 MB14-08-2019
Iron Sky. Inwazja / Iron Sky: The Coming Race..Filmy98%1,68 GB21-09-2019
Iron Man [720p] [x264] [Lektor PL/ENG] [2008]Filmy98%7,69 GB19-05-2012
Iron Man 2 [720p] [x264] [Lektor PL/ENG] [201..Filmy98%7,81 GB26-05-2012
The man in the iron mask / Człowiek w żelazne..Filmy50%650 MB11-07-2012
Najwyżej ocenionione komentarze:
polecam tego alegrowicza

2

1 0

04.09.2016
Komentarze użytkowników:
polecam tego alegrowicza

2

1 0

04.09.2016
Żaden z plików nie znajduje się na serwerze. Hashcody są własnością użytkowników. Administrator serwisu nie może ponieść konsekwencji za to co użytkownicy wstawiają lub za to co czynią na stronie.
Nie możesz używać tego serwisu do rozpowszechniania lub ściągania materiałów do których nie masz odpowiednich praw lub licencji. Użytkownicy odpowiedzialni są za przestrzeganie tych zasad.