Nasz serwis internetowy oraz podmioty z nim współpracujące takie jak reklamodawcy, firmy badające rynek, dostawcy usług oraz treści, korzystają z plików Cookies zapisywanych na Twoim urządzeniu w celach identyfikacyjnych, reklamowych oraz statystycznych. Dzięki temu możemy między innymi dostosować wygląd strony do indywidualnych potrzeb użytkowników. W przeglądarce internetowej możesz zmienić ustawienia dotyczące Cookies. Instrukcje zmiany ustawień dla najpopularniejszych przeglądarek znajdziesz tutaj: Chrome, Firefox, Internet Explorer, Opera i Safari. Jeżeli nie wyrażasz zgody na wykorzystywanie przez nas mechanizmu Cookies, wyłącz ich obsługę w ustawieniach swojej przeglądarki.
Więcej informacji możesz znaleźć w Informacje o plikach cookies.
Haszkod.pl - Strona główna
szukaj
| |


Iron Man 3 [Napisy PL] [720p] [2013]

Iron Man 3 [Napisy PL] [720p] [2013]

sprawność: 99%
Zdobądź lepszą rangę,
aby oceniać haszkody.

Pokaż hashcode

Zaloguj się!

Dopiero po utworzeniu konta w serwisie, możliwe jest korzystanie z zawartości.

Rejestracja!
Dodał: mlody999
Należy pobrać przez: MailShare
Kategoria: Filmy Rozmiar: 3,88 GB
Podkategoria: 1080p / 720p Pobrań: 235
Data dodania: 24-08-2013 12:28 Data premiery: 18 kwietnia 2013




Niezastąpiony Robert Downey Jr. powraca w roli miliardera i genialnego wynalazcy Tony?ego Starka w trzeciej części historii ze świata Marvela ? "Iron Man 3". Świat Tony?ego Starka legł w gruzach w skutek podstępnych działań jednego z jego najpotężniejszych wrogów. W poszukiwaniu zemsty Stark wyrusza w podróż, która wystawi na próbę siłę jego charakteru i ducha walki. Przyparty do muru, znów może polegać wyłącznie na swojej pomysłowości i instynkcie. Wkrótce odkrywa odpowiedź na od dawna nurtujące go pytanie: czy to zbroja czyni superbohatera?






General
Format : AVI
Format/Info : Audio Video Interleave
Format profile : OpenDML
Format settings : rec
File size : 3.53 GiB
Duration : 2h 11mn
Overall bit rate : 3 853 Kbps
Writing application : AVI-Mux GUI 1.17.8.3, Feb 16 201019:42:50

Video
ID : 0
Format : MPEG-4 Visual
Format profile : Advanced [email protected]
Format settings, BVOP : 1
Format settings, QPel : No
Format settings, GMC : No warppoints
Format settings, Matrix : Custom
Codec ID : XVID
Codec ID/Hint : XviD
Duration : 2h 11mn
Bit rate : 3 593 Kbps
Width : 1 280 pixels
Height : 532 pixels
Display aspect ratio : 2.40:1
Frame rate : 23.976 fps
Color space : YUV
Chroma subsampling : 4:2:0
Bit depth : 8 bits
Scan type : Progressive
Compression mode : Lossy
Bits/(Pixel*Frame) : 0.220
Stream size : 3.30 GiB (93%)
Writing library : XviD 64

Audio
ID : 1
Format : AC-3
Format/Info : Audio Coding 3
Mode extension : CM (complete main)
Format settings, Endianness : Big
Codec ID : 2000
Duration : 2h 10mn
Bit rate mode : Constant
Bit rate : 256 Kbps
Channel(s) : 2 channels
Channel positions : Front: L R
Sampling rate : 48.0 KHz
Bit depth : 16 bits
Compression mode : Lossy
Stream size : 239 MiB (7%)
Alignment : Aligned on interleaves
Interleave, duration : 64 ms (1.54 video frames)
Interleave, preload duration : 192 ms
Title : Audio - English









































Pliki trzymam na dysku tydzień od wstawienia, po upływie tego czasu nie naprawiam uploadów.
Inne podobne haszkody dostępne w serwisie:
NazwaKategoriaSprawnośćRozmiarDodano
Iron Sky. Inwazja / Iron Sky: The Coming Race..Filmy97%702 MB14-08-2019
Iron Sky. Inwazja / Iron Sky: The Coming Race..Filmy98%1,68 GB21-09-2019
Iron Man 2 [Napisy PL][DVDRip] [2010][ENG]Filmy93%1,36 GB05-09-2010
The Man with the Iron Fists [Napisy PL] [HDRi..Filmy99%755 MB27-12-2012
Iron Man: Rise of Technovore [Napisy PL][WEBR..Filmy95%757 MB04-05-2013
Najwyżej ocenionione komentarze:
Tak sie składa ze u mnie też archiwum uszkodzone

2

1 0

25.08.2013
Komentarze użytkowników:
Archiwum uszkodzone.

-2

1 0

24.08.2013
@Google333 wszystko jest ok z archiwum, i ocenia się sprawność uploadu a nie jego zawartość...

Co do uploadu nie wiem w czym problem:
http://i.imgur.com/vrgChYw.png
http://i.imgur.com/nJWBpwE.png

Pozdrawiam, mlody999.

0

1 0

25.08.2013
Napisy wtopione czy w paczce?

0

1 0

25.08.2013
Tak sie składa ze u mnie też archiwum uszkodzone

2

1 0

25.08.2013
wszystko ok działa

0

1 0

25.08.2013
Tak się składa że właśnie sprawdziłem i wszystko się ładnie wypakowało :) Napisy oddzielnie ale dorzuciłem już jak coś.

0

1 0

25.08.2013
U mnie też wszystko OK. Najpierw przeczytajcie instrukcje obslugi Mailshare-a, a potem możecie użyc danych naprawczych.:D

0

1 0

25.08.2013
part 2 szwankuje

0

1 0

25.08.2013
Wszystko ok,dzięki

0

1 0

26.08.2013
Dziękuję, bardzo ładna kopia.

0

1 0

26.08.2013
Żaden z plików nie znajduje się na serwerze. Hashcody są własnością użytkowników. Administrator serwisu nie może ponieść konsekwencji za to co użytkownicy wstawiają lub za to co czynią na stronie.
Nie możesz używać tego serwisu do rozpowszechniania lub ściągania materiałów do których nie masz odpowiednich praw lub licencji. Użytkownicy odpowiedzialni są za przestrzeganie tych zasad.