Nasz serwis internetowy oraz podmioty z nim współpracujące takie jak reklamodawcy, firmy badające rynek, dostawcy usług oraz treści, korzystają z plików Cookies zapisywanych na Twoim urządzeniu w celach identyfikacyjnych, reklamowych oraz statystycznych. Dzięki temu możemy między innymi dostosować wygląd strony do indywidualnych potrzeb użytkowników. W przeglądarce internetowej możesz zmienić ustawienia dotyczące Cookies. Instrukcje zmiany ustawień dla najpopularniejszych przeglądarek znajdziesz tutaj: Chrome, Firefox, Internet Explorer, Opera i Safari. Jeżeli nie wyrażasz zgody na wykorzystywanie przez nas mechanizmu Cookies, wyłącz ich obsługę w ustawieniach swojej przeglądarki.
Więcej informacji możesz znaleźć w Informacje o plikach cookies.
Haszkod.pl - Strona główna
szukaj
| |


Jarhead 2: W polu ognia / Jarhead 2: Field of Fire [BRRip] [2014][Lektor PL]

Jarhead 2: W polu ognia / Jarhead 2: Field of Fire [BRRip] [2014][Lektor PL]
sprawność: 97%
Zdobądź lepszą rangę,
aby oceniać haszkody.

Pokaż hashcode

Zaloguj się!

Dopiero po utworzeniu konta w serwisie, możliwe jest korzystanie z zawartości.

Rejestracja!
Dodał: windoz
Należy pobrać przez: MailShare
Kategoria: Filmy Rozmiar: 1,69 GB
Podkategoria: High Quality Pobrań: 351
Data dodania: 09-09-2014 18:02 Data premiery: 19 sierpnia 2014



OPIS

Gatunek: Akcja
Produkcja: USA
Premiera: 19 sierpnia 2014 (świat)
Ocena Filmweb: 5,8
Czas trwania: 1 godz. 43 min.

Kapral Chris Merrimette dowodzi jednostką, która ma przejąć teren kontrolowany
przez Talibów. W trakcie misji nie wszystko idzie zgodnie z planem.


SCREENY




PARAMETRY


Video
ID : 0
Format : MPEG-4 Visual
Format profile : Advanced [email protected]
Format settings, BVOP : 2
Format settings, QPel : No
Format settings, GMC : No warppoints
Format settings, Matrix : Default (MPEG)
Codec ID : XVID
Codec ID/Hint : XviD
Duration : 1h 42mn
Bit rate : 1 852 Kbps
Width : 720 pixels
Height : 304 pixels
Display aspect ratio : 2.35:1
Frame rate : 23.976 fps
Color space : YUV
Chroma subsampling : 4:2:0
Bit depth : 8 bits
Scan type : Progressive
Compression mode : Lossy
Bits/(Pixel*Frame) : 0.353
Stream size : 1.33 GiB (82%)
Writing library : XviD 1.2.1 (UTC 2008-12-04)

Audio
ID : 1
Format : AC-3
Format/Info : Audio Coding 3
Mode extension : CM (complete main)
Format settings, Endianness : Big
Codec ID : 2000
Duration : 1h 42mn
Bit rate mode : Constant
Bit rate : 384 Kbps
Channel(s) : 6 channels
Channel positions : Front: L C R, Side: L R, LFE
Sampling rate : 48.0 KHz
Bit depth : 16 bits
Compression mode : Lossy
Stream size : 282 MiB (17%)
Alignment : Split accross interleaves
Interleave, duration : 42 ms (1.00 video frame)
Interleave, preload duration : 500 ms
ostatnia modyfikacja: 09 września 2014, 18:01 (Kategoria // edited by crowlley)
Inne podobne haszkody dostępne w serwisie:
NazwaKategoriaSprawnośćRozmiarDodano
Jarhead 2: W polu ognia / Jarhead 2: Field of..Filmy99%695 MB10-09-2014
Jarhead 2 Field of Fire [BRRip][Napisy PL] [2..Filmy99%700 MB14-08-2014
Jarhead 2: W polu ognia [1080p][MKV] [2014][L..Filmy96%8,03 GB19-09-2014
Jarhead 3: Oblężenie / Jarhead 3: The Siege [..Filmy92%1,33 GB07-07-2020
Jarhead: Żołnierz piechoty morskiej [DVDRip] ..Filmy99%734 MB25-10-2011
Najwyżej ocenionione komentarze:
Wyczuwam nadciągającą chujnie idąca z tym filmem 5.8 na filmwebie to stanowczo za mało w porównaniu do pierwszej części która miała 7.4. Ale i tak pobiorę i ocenie.

3

1 0

09.09.2014
Komentarze użytkowników:
Wyczuwam nadciągającą chujnie idąca z tym filmem 5.8 na filmwebie to stanowczo za mało w porównaniu do pierwszej części która miała 7.4. Ale i tak pobiorę i ocenie.

3

1 0

09.09.2014
Moim zdaniem, bardzo dobry film. Brak co prawda elementów komediowych jak w poprzedniej części, co nie zmienia faktu, że kino na bardzo wysokim poziomie. Trzyma w napięciu.

0

1 0

10.09.2014
Film średni, z nudów mozna zobaczyć!! Nie umywa się do pierwszej części.

0

1 0

14.09.2014
Dodaj komentarz:
Zasady pisania komentarzy w serwisie Haszkod.pl :
  • Zakaz podawania adresów stron o podobnej tematyce.
  • Zakaz wklejania linków do alternatywnej metody ściągnięcia tej samej rzeczy.
  • Zakaz składania próśb o upload, jest do tego specjalny dział.
  • Zakaz wklejania hashcodów w treści komentarzy.
Wypowiedzi w komentarzach powinny być formułowane w sposób uprzejmy, z poszanowaniem innych użytkowników i ich stanowisk.

Autor:
Treść:

+ - | b u i

Możesz jeszcze wpisać: znaków.

Żaden z plików nie znajduje się na serwerze. Hashcody są własnością użytkowników. Administrator serwisu nie może ponieść konsekwencji za to co użytkownicy wstawiają lub za to co czynią na stronie.
Nie możesz używać tego serwisu do rozpowszechniania lub ściągania materiałów do których nie masz odpowiednich praw lub licencji. Użytkownicy odpowiedzialni są za przestrzeganie tych zasad.