Nasz serwis internetowy oraz podmioty z nim współpracujące takie jak reklamodawcy, firmy badające rynek, dostawcy usług oraz treści, korzystają z plików Cookies zapisywanych na Twoim urządzeniu w celach identyfikacyjnych, reklamowych oraz statystycznych. Dzięki temu możemy między innymi dostosować wygląd strony do indywidualnych potrzeb użytkowników. W przeglądarce internetowej możesz zmienić ustawienia dotyczące Cookies. Instrukcje zmiany ustawień dla najpopularniejszych przeglądarek znajdziesz tutaj: Chrome, Firefox, Internet Explorer, Opera i Safari. Jeżeli nie wyrażasz zgody na wykorzystywanie przez nas mechanizmu Cookies, wyłącz ich obsługę w ustawieniach swojej przeglądarki.
Więcej informacji możesz znaleźć w Informacje o plikach cookies.
Haszkod.pl - Strona główna
szukaj
| |


Kobiety Mafii [CAM] [2018][PL]

Kobiety Mafii [CAM] [2018][PL]
sprawność: 96%
Zdobądź lepszą rangę,
aby oceniać haszkody.

Pokaż hashcode

Zaloguj się!

Dopiero po utworzeniu konta w serwisie, możliwe jest korzystanie z zawartości.

Rejestracja!
Dodał: user333
Należy pobrać przez: MailExchange
Kategoria: Filmy Rozmiar: 909 MB
Podkategoria: Low Quality Pobrań: 343
Data dodania: 07-04-2018 18:57 Data premiery: 22 lutego 2018
OPIS

Bela, była funkcjonariuszka policji, dostaje od ABW zadanie rozpracowania szajki przestępczej handlującej narkotykami. Aby jej misja się powiodła, musi rozpocząć współpracę z mafią.


SCREEN








PARAMETRY

Video
ID : 1
Format : AVC
Format/Info : Advanced Video Codec
Format profile : [email protected]
Format settings : CABAC / 4 Ref Frames
Format settings, CABAC : Yes
Format settings, ReFrames : 4 frames
Codec ID : avc1
Codec ID/Info : Advanced Video Coding
Duration : 2 h 15 min
Bit rate : 830 kb/s
Width : 1 140 pixels
Height : 480 pixels
Display aspect ratio : 2.40:1
Frame rate mode : Constant
Frame rate : 30.000 FPS
Color space : YUV
Chroma subsampling : 4:2:0
Bit depth : 8 bits
Scan type : Progressive
Bits/(Pixel*Frame) : 0.051
Stream size : 807 MiB (89%)
Writing library : x264 core 152

Audio
ID : 2
Format : AAC
Format/Info : Advanced Audio Codec
Format profile : LC
Codec ID : mp4a-40-2
Duration : 2 h 15 min
Duration_LastFrame : -11 ms
Bit rate mode : Constant
Bit rate : 96.0 kb/s
Channel(s) : 2 channels
Channel positions : Front: L R
Sampling rate : 48.0 kHz
Frame rate : 46.875 FPS (1024 SPF)
Compression mode : Lossy
Stream size : 93.3 MiB (10%)
Default : Yes
Alternate group : 1

WERSJA KINOWA WERSJA KINOWA WERSJA KINOWA
ostatnia modyfikacja: 09 kwietnia 2018, 18:21 (.)
Inne podobne haszkody dostępne w serwisie:
NazwaKategoriaSprawnośćRozmiarDodano
Kobiety mafii [BDRip] [2018][PL]Filmy100%1,41 GB19-06-2018
Kobiety mafii [BDRip][720p] [2018][PL]Filmy98%3,52 GB22-06-2018
Kobiety mafii [S01E05][720p][WEBRip] [2018][P..Filmy98%1,10 GB04-07-2018
Kobiety mafii [S01E06][720p][WEBRip] [2018][P..Filmy97%1,11 GB04-07-2018
Kobiety mafii [S01E04][720p][WEBRip] [2018][P..Filmy98%938 MB21-06-2018
Najwyżej ocenionione komentarze:
Komentarze użytkowników:
Za taka jakosc powinni przywrocic kare smierci.
Film tragicznej jakosci ;/

-2

1 0

07.04.2018
Przecież KINO, czego się spodziewałeś DVD Qality?
Udostępniłem tylko dla tego że po obejrzeniu stwierdziłem że film żaden i nie będę marnował na niego czasu w kinie.

Ostatnio edytowane przez user333 w dniu 2018-04-07 20:48:26

-1

1 0

07.04.2018
Też pobrałem - bo w nazwie nie umieściłeś takiego taga co zdecydowanie powoduje słuszną irytację.

0

1 0

09.04.2018
pinhasz a jak myślisz dlaczego jest w dziale Low? Niby vip a jaednak....

0

1 0

09.04.2018
Dodaj komentarz:
Zasady pisania komentarzy w serwisie Haszkod.pl :
  • Zakaz podawania adresów stron o podobnej tematyce.
  • Zakaz wklejania linków do alternatywnej metody ściągnięcia tej samej rzeczy.
  • Zakaz składania próśb o upload, jest do tego specjalny dział.
  • Zakaz wklejania hashcodów w treści komentarzy.
Wypowiedzi w komentarzach powinny być formułowane w sposób uprzejmy, z poszanowaniem innych użytkowników i ich stanowisk.

Autor:
Treść:

+ - | b u i

Możesz jeszcze wpisać: znaków.

Żaden z plików nie znajduje się na serwerze. Hashcody są własnością użytkowników. Administrator serwisu nie może ponieść konsekwencji za to co użytkownicy wstawiają lub za to co czynią na stronie.
Nie możesz używać tego serwisu do rozpowszechniania lub ściągania materiałów do których nie masz odpowiednich praw lub licencji. Użytkownicy odpowiedzialni są za przestrzeganie tych zasad.