Nasz serwis internetowy oraz podmioty z nim współpracujące takie jak reklamodawcy, firmy badające rynek, dostawcy usług oraz treści, korzystają z plików Cookies zapisywanych na Twoim urządzeniu w celach identyfikacyjnych, reklamowych oraz statystycznych. Dzięki temu możemy między innymi dostosować wygląd strony do indywidualnych potrzeb użytkowników. W przeglądarce internetowej możesz zmienić ustawienia dotyczące Cookies. Instrukcje zmiany ustawień dla najpopularniejszych przeglądarek znajdziesz tutaj: Chrome, Firefox, Internet Explorer, Opera i Safari. Jeżeli nie wyrażasz zgody na wykorzystywanie przez nas mechanizmu Cookies, wyłącz ich obsługę w ustawieniach swojej przeglądarki.
Więcej informacji możesz znaleźć w Informacje o plikach cookies.
Haszkod.pl - Strona główna
szukaj
| |


Lethal Weapon / Zabójcza Broń I-IV 1987-1998 [720p] [ENG]

Lethal Weapon / Zabójcza Broń I-IV  1987-1998 [720p] [ENG]
sprawność: 88%
Zdobądź lepszą rangę,
aby oceniać haszkody.

Pokaż hashcode

Zaloguj się!

Dopiero po utworzeniu konta w serwisie, możliwe jest korzystanie z zawartości.

Rejestracja!
Dodał: dancio1939
Należy pobrać przez: MailShare
Kategoria: Filmy Rozmiar: 8,66 GB
Podkategoria: 1080p / 720p Pobrań: 37
Data dodania: 22-07-2013 14:49
INFO


NAPISY PL SĄ DLA KAŻDEJ CZĘŚCI


MOŻLIWOŚĆ POBRANIA DOWOLNEJ CZĘŚCI FILMU



LETHAL WEAPON


Martin Riggs nie jest zwyczajnym gliniarzem. Jego niemal samobójcza brawura w ściganiu przestępców czyni z niego zabójczą broń. Jest niebezpieczny dla otoczenia, ale przede wszystkim dla siebie samego. Roger Murtaugh to typowy detektyw przed emeryturą, mający rodzinę, dom i dobrą pensję. Jednak na emeryturę trzeba sobie zasłużyć. Roger zostaje partnerem Riggsa. Tych dwóch gliniarzy praktycznie wszystko dzieli. Czy nauczą się współpracować?




Lethal Weapon 1 1987.mp4
Format : MPEG-4
Format profile : Base Media / Version 2
Codec ID : mp42
File size : 1.83 GiB
Duration : 1h 49mn
Overall bit rate : 2 388 Kbps
Encoded date : UTC 2010-12-02 13:07:10
Tagged date : UTC 2010-12-02 20:07:22
Writing application : HandBrake 0.9.4 2009112300
Video #1
ID : 1
Format : AVC
Format/Info : Advanced Video Codec
Format profile : [email protected]
Format settings, CABAC : No
Format settings, ReFrames : 3 frames
Codec ID : avc1
Codec ID/Info : Advanced Video Coding
Duration : 1h 49mn
Bit rate mode : Variable
Bit rate : 2 000 Kbps
Width : 1 280 pixels
Height : 720 pixels
Display aspect ratio : 16:9
Frame rate mode : Variable
Frame rate : 23.976 fps
Minimum frame rate : 23.974 fps
Maximum frame rate : 23.981 fps
Resolution : 24 bits
Colorimetry : 4:2:0
Scan type : Progressive
Bits/(Pixel*Frame) : 0.091
Stream size : 1.53 GiB (84%)
Writing library : x264 core 79

Audio #2
ID : 2
Format : AAC
Format/Info : Advanced Audio Codec
Format version : Version 4
Format profile : LC
Format settings, SBR : No
Codec ID : 40
Duration : 1h 49mn
Bit rate mode : Variable
Bit rate : 384 Kbps
Maximum bit rate : 626 Kbps
Channel(s) : 6 channels
Channel positions : Front: L C R, Rear: L R, LFE
Sampling rate : 48.0 KHz
Resolution : 16 bits
Stream size : 301 MiB (16%)
Language : English
Encoded date : UTC 2010-12-02 13:07:10
Tagged date : UTC 2010-12-02 20:07:22








LETHAL WEAPON II


Martin Riggs i Roger Murtaugh mają pilnować Leo Getza, nieuczciwego księgowego, świadka koronnego w procesie mafii. Leo prał brudne pieniądze pochodzące z interesów mafii narkotykowej, którą policjanci od dawna próbują wyśledzić. Do Los Angeles przybywa dyplomata z Afryki Południowej - Arjen Rudd. Według informacji Getza, to on jest szefem narkotykowego imperium. Riggs zakochuje się w pięknej asystentce Rudda, która nie zdaje sobie sprawy, czym naprawdę zajmuje się jej szef. W rolach policjantów ponownie wystąpili Mel Gibson i Danny Glover.




Lethal Weapon 2 1989.mp4
Format : MPEG-4
Format profile : Base Media / Version 2
Codec ID : mp42
File size : 1.91 GiB
Duration : 1h 54mn
Overall bit rate : 2 388 Kbps
Encoded date : UTC 2010-12-02 23:13:21
Tagged date : UTC 2010-12-03 05:15:54
Writing application : HandBrake 0.9.4 2009112300
Video #1
ID : 1
Format : AVC
Format/Info : Advanced Video Codec
Format profile : [email protected]
Format settings, CABAC : No
Format settings, ReFrames : 3 frames
Codec ID : avc1
Codec ID/Info : Advanced Video Coding
Duration : 1h 54mn
Bit rate mode : Variable
Bit rate : 2 000 Kbps
Width : 1 280 pixels
Height : 544 pixels
Display aspect ratio : 2.35:1
Frame rate mode : Variable
Frame rate : 23.976 fps
Minimum frame rate : 23.974 fps
Maximum frame rate : 23.981 fps
Resolution : 24 bits
Colorimetry : 4:2:0
Scan type : Progressive
Bits/(Pixel*Frame) : 0.120
Stream size : 1.60 GiB (84%)
Writing library : x264 core 79

Audio #2
ID : 2
Format : AAC
Format/Info : Advanced Audio Codec
Format version : Version 4
Format profile : LC
Format settings, SBR : No
Codec ID : 40
Duration : 1h 54mn
Bit rate mode : Variable
Bit rate : 384 Kbps
Maximum bit rate : 531 Kbps
Channel(s) : 6 channels
Channel positions : Front: L C R, Rear: L R, LFE
Sampling rate : 48.0 KHz
Resolution : 16 bits
Stream size : 314 MiB (16%)
Language : English
Encoded date : UTC 2010-12-02 23:13:22
Tagged date : UTC 2010-12-03 05:15:54








LETHAL WEAPON III


Detektywi Martin Riggs (Mel Gibson) i Roger Murtaugh (Danny Glover) wspólnie usiłują rozbroić ładunek wybuchowy podłożony w jednym z budynków Los Angeles. Riggs przecina niewłaściwy kabel i dochodzi do eksplozji. Za karę obaj detektywi zostają zdegradowani i mają patrolować ulice. W tym czasie na posterunku pojawia się nowa pani sierżant, Lorna Cole (Rene Russo). Pomaga detektywom ustalić, kto kradnie broń, zarekwirowaną przez policję przestępcom.




Lethal Weapon 3 1992.mp4
Format : MPEG-4
Format profile : Base Media / Version 2
Codec ID : mp42
File size : 1.97 GiB
Duration : 1h 57mn
Overall bit rate : 2 389 Kbps
Movie name : Lethal Weapon 3
Performer : Kellso76
Genre : Action
Encoded date : UTC 1992-05-15 05:00:00
Tagged date : UTC 2010-12-02 00:08:28
Writing application : HandBrake 0.9.4 2009112300

Video #1
ID : 1
Format : AVC
Format/Info : Advanced Video Codec
Format profile : [email protected]
Format settings, CABAC : No
Format settings, ReFrames : 3 frames
Codec ID : avc1
Codec ID/Info : Advanced Video Coding
Duration : 1h 57mn
Bit rate mode : Variable
Bit rate : 2 000 Kbps
Width : 1 280 pixels
Height : 528 pixels
Display aspect ratio : 2.40:1
Frame rate mode : Variable
Frame rate : 23.976 fps
Minimum frame rate : 23.974 fps
Maximum frame rate : 23.981 fps
Resolution : 24 bits
Colorimetry : 4:2:0
Scan type : Progressive
Bits/(Pixel*Frame) : 0.123
Stream size : 1.65 GiB (84%)
Writing library : x264 core 79

Audio #2
ID : 2
Format : AAC
Format/Info : Advanced Audio Codec
Format version : Version 4
Format profile : LC
Format settings, SBR : No
Codec ID : 40
Duration : 1h 57mn
Bit rate mode : Variable
Bit rate : 384 Kbps
Maximum bit rate : 481 Kbps
Channel(s) : 6 channels
Channel positions : Front: L C R, Rear: L R, LFE
Sampling rate : 48.0 KHz
Resolution : 16 bits
Stream size : 324 MiB (16%)
Language : English
Encoded date : UTC 2010-12-01 19:07:15
Tagged date : UTC 2010-12-02 00:08:28








LETHAL WEAPON IV


Martin Riggs (Mel Gibson) nadal jest zakochany w Lornie Cole (Rene Russo). Jego ukochana spodziewa się dziecka. Wiadomość ta jest dla policjanta dużym zaskoczeniem. Oboje nieśmiało zaczynają myśleć o ślubie. Zmiany zachodzą również w rodzinie Murtaugha (Danny Glover). Roger zostanie niedługo dziadkiem. Nie wie jednak, że ojcem dziecka jego córki jest młody detektyw Lee Butters (Chris Rock), za którym nie przepada. Riggs i Murtaugh prowadzą dochodzenie w sprawie, w którą zamieszani się imigranci z Azji. Okazuje się, że pewna triada produkuje w Los Angeles fałszywe banknoty, by wykupić swoich przywódców z więzienia w Chinach i zorganizować ich przewóz do Stanów Zjednoczonych. Pieczę nad tym procederem sprawuje demoniczny Chińczyk Wah Sing Ku (Jet Li), mistrz walk wschodnich.




Lethal Weapon 4 1998.mp4
Format : MPEG-4
Format profile : Base Media / Version 2
Codec ID : mp42
File size : 2.13 GiB
Duration : 2h 7mn
Overall bit rate : 2 388 Kbps
Movie name : Lethal Weapon 4
Performer : Kellso76
Genre : Action
Encoded date : UTC 1998-07-11 00:00:00
Tagged date : UTC 2010-12-02 09:25:39
Writing application : HandBrake 0.9.4 2009112300

Video #1
ID : 1
Format : AVC
Format/Info : Advanced Video Codec
Format profile : [email protected]
Format settings, CABAC : No
Format settings, ReFrames : 3 frames
Codec ID : avc1
Codec ID/Info : Advanced Video Coding
Duration : 2h 7mn
Bit rate mode : Variable
Bit rate : 2 000 Kbps
Width : 1 280 pixels
Height : 528 pixels
Display aspect ratio : 2.40:1
Frame rate mode : Variable
Frame rate : 23.976 fps
Minimum frame rate : 23.974 fps
Maximum frame rate : 23.981 fps
Resolution : 24 bits
Colorimetry : 4:2:0
Scan type : Progressive
Bits/(Pixel*Frame) : 0.123
Stream size : 1.78 GiB (84%)
Writing library : x264 core 79

Audio #2
ID : 2
Format : AAC
Format/Info : Advanced Audio Codec
Format version : Version 4
Format profile : LC
Format settings, SBR : No
Codec ID : 40
Duration : 2h 7mn
Bit rate mode : Variable
Bit rate : 384 Kbps
Maximum bit rate : 471 Kbps
Channel(s) : 6 channels
Channel positions : Front: L C R, Rear: L R, LFE
Sampling rate : 48.0 KHz
Resolution : 16 bits
Stream size : 350 MiB (16%)
Language : English
Encoded date : UTC 2010-12-02 04:06:40
Tagged date : UTC 2010-12-02 09:25:38








ostatnia modyfikacja: 23 lipca 2013, 15:15 (pp1)
Inne podobne haszkody dostępne w serwisie:
NazwaKategoriaSprawnośćRozmiarDodano
Zabójcza Broń / Lethal Weapon [S02E01-E02][NA..Filmy50%3,13 GB28-10-2017
Zabójcza Broń / Lethal Weapon [S02E03][NAPISY..Filmy75%1,32 GB31-10-2017
Zabójcza Broń / Lethal Weapon [S02E01][720p][..Filmy75%1,49 GB07-02-2018
Zabójcza Broń / Lethal Weapon [S02E02][720p][..Filmy84%1,43 GB15-02-2018
Zabójcza Broń / Lethal Weapon [S02E03][720p][..Filmy75%1,43 GB23-02-2018
Najwyżej ocenionione komentarze:
po polsku nie ma ktoś?

1

1 0

22.07.2013
Komentarze użytkowników:
po polsku nie ma ktoś?

1

1 0

22.07.2013
masz napisy do każdej części

0

1 0

22.07.2013
Żaden z plików nie znajduje się na serwerze. Hashcody są własnością użytkowników. Administrator serwisu nie może ponieść konsekwencji za to co użytkownicy wstawiają lub za to co czynią na stronie.
Nie możesz używać tego serwisu do rozpowszechniania lub ściągania materiałów do których nie masz odpowiednich praw lub licencji. Użytkownicy odpowiedzialni są za przestrzeganie tych zasad.