Nasz serwis internetowy oraz podmioty z nim współpracujące takie jak reklamodawcy, firmy badające rynek, dostawcy usług oraz treści, korzystają z plików Cookies zapisywanych na Twoim urządzeniu w celach identyfikacyjnych, reklamowych oraz statystycznych. Dzięki temu możemy między innymi dostosować wygląd strony do indywidualnych potrzeb użytkowników. W przeglądarce internetowej możesz zmienić ustawienia dotyczące Cookies. Instrukcje zmiany ustawień dla najpopularniejszych przeglądarek znajdziesz tutaj: Chrome, Firefox, Internet Explorer, Opera i Safari. Jeżeli nie wyrażasz zgody na wykorzystywanie przez nas mechanizmu Cookies, wyłącz ich obsługę w ustawieniach swojej przeglądarki.
Więcej informacji możesz znaleźć w Informacje o plikach cookies.
Haszkod.pl - Strona główna
szukaj
| |


Millerowie / We're the Millers [720p][WEBrip][R6][x264] [2013][ENG]

Millerowie / We're the Millers [720p][WEBrip][R6][x264] [2013][ENG]
sprawność: 98%
Zdobądź lepszą rangę,
aby oceniać haszkody.

Pokaż hashcode

Zaloguj się!

Dopiero po utworzeniu konta w serwisie, możliwe jest korzystanie z zawartości.

Rejestracja!
Dodał: mlody999
Należy pobrać przez: MailShare
Kategoria: Filmy Rozmiar: 2,90 GB
Podkategoria: Medium Quality Pobrań: 464
Data dodania: 25-08-2013 13:16 Data premiery: 09 sierpnia 2013



David Burke (Jason Sudeikis) jest pomniejszej klasy dealerem marihuany. Jego klientami są kucharze, matki, ale nie dzieci ? ma przecież skrupuły. Co więc mogło pójść źle? Wiele rzeczy. Woląc z oczywistych powodów trzymać się w cieniu, na własnej skórze odczuwa, że żaden dobry uczynek nie uchodzi bezkarnie. Kiedy próbuje pomóc nastolatkom z sąsiedztwa, napada na niego trzech bezdomnych punków, którzy kradną mu towar i pieniądze, przez co staje się dłużnikiem swego dostawcy, Brada (Ed Helms). Aby zacząć od nowa ? i zachować zdrowie, a pewnie też życie ? David musi stać się przemytnikiem narkotyków na dużą skalę i sprowadzić najnowszą dostawę Brada z Meksyku. Z pomocą swoich sąsiadów: cynicznej striptizerki Rose (Jennifer Aniston), niedoszłego klienta Kenny?ego (Will Poulter) oraz sprytnej, znającej życie ulicy nastolatki Casey (Emma Roberts) obmyśla niezawodny plan.





General
Format : AVI
Format/Info : Audio Video Interleave
Format profile : OpenDML
File size : 2.63 GiB
Duration : 1h 49mn
Overall bit rate : 3 434 Kbps
Writing application : VirtualDubMod 1.5.10.2 (build 2540/release)
Writing library : VirtualDubMod build 2540/release

Video
ID : 0
Format : MPEG-4 Visual
Format profile : Advanced [email protected]
Format settings, BVOP : 2
Format settings, QPel : No
Format settings, GMC : No warppoints
Format settings, Matrix : Default (H.263)
Muxing mode : Packed bitstream
Codec ID : XVID
Codec ID/Hint : XviD
Duration : 1h 49mn
Bit rate : 3 231 Kbps
Width : 1 280 pixels
Height : 528 pixels
Display aspect ratio : 2.40:1
Frame rate : 24.000 fps
Color space : YUV
Chroma subsampling : 4:2:0
Bit depth : 8 bits
Scan type : Progressive
Compression mode : Lossy
Bits/(Pixel*Frame) : 0.199
Stream size : 2.48 GiB (94%)
Writing library : XviD 64

Audio
ID : 1
Format : AC-3
Format/Info : Audio Coding 3
Mode extension : CM (complete main)
Format settings, Endianness : Big
Codec ID : 2000
Duration : 1h 49mn
Bit rate mode : Constant
Bit rate : 192 Kbps
Channel(s) : 2 channels
Channel positions : Front: L R
Sampling rate : 48.0 KHz
Bit depth : 16 bits
Compression mode : Lossy
Stream size : 151 MiB (6%)
Alignment : Split accross interleaves
Interleave, duration : 42 ms (1.00 video frame)
Interleave, preload duration : 500 ms






































Pliki trzymam na dysku tydzień od wstawienia, po upływie tego czasu nie naprawiam uploadów.
ostatnia modyfikacja: 25 sierpnia 2013, 15:05 (kategoria // edited by vasper)
Inne podobne haszkody dostępne w serwisie:
NazwaKategoriaSprawnośćRozmiarDodano
We're the Millers / Millerowie [EXTENDED..Filmy98%711 MB11-11-2013
Millerowie / We're the Millers [MKV] [72..Filmy98%6,05 GB01-11-2013
Millerowie / We're the Millers [MKV] [72..Filmy98%5,30 GB22-12-2013
Millerowie / We're the Millers [BRRip] [..Filmy100%1,49 GB05-12-2013
Millerowie / We're the Millers [BDRip] [..Filmy95%766 MB22-10-2015
Najwyżej ocenionione komentarze:
Komentarze użytkowników:
napisy jakieś?

0

1 0

25.08.2013
Wszystko smiga, Jakość b. dobra. Jedyny minus to te znaczki, ale takie uroki r6. Co do napisow, na chwile obecna nie ma, ale znajac zycie pojawia sie za dzien, dwa.

0

1 0

26.08.2013
ma ktoś napisy już ??

0

1 0

28.08.2013
błędy przy rozpakowaniu....Nie działa

0

1 0

01.09.2013
A napisów nie ma

0

1 0

01.09.2013
Bylem w kinie. Fillm zajebisty :D Cala sala sie smiala prezz prawie caly film. Polecam :)

0

1 0

20.09.2013
wiecie co pomogę z tymi napisami. w 90% procentach przypadków pomaga wujek google. Po prostu w wyszukiwarce wpiszcie np " We're the Millers english subtitles" i dalej szukacie napisów które zgrywaja się z daną wersją filmu. Ja najczęściej ciągnę z podnapisi. pozdro :)

0

1 0

18.11.2013
Dodaj komentarz:
Zasady pisania komentarzy w serwisie Haszkod.pl :
  • Zakaz podawania adresów stron o podobnej tematyce.
  • Zakaz wklejania linków do alternatywnej metody ściągnięcia tej samej rzeczy.
  • Zakaz składania próśb o upload, jest do tego specjalny dział.
  • Zakaz wklejania hashcodów w treści komentarzy.
Wypowiedzi w komentarzach powinny być formułowane w sposób uprzejmy, z poszanowaniem innych użytkowników i ich stanowisk.

Autor:
Treść:

+ - | b u i

Możesz jeszcze wpisać: znaków.

Żaden z plików nie znajduje się na serwerze. Hashcody są własnością użytkowników. Administrator serwisu nie może ponieść konsekwencji za to co użytkownicy wstawiają lub za to co czynią na stronie.
Nie możesz używać tego serwisu do rozpowszechniania lub ściągania materiałów do których nie masz odpowiednich praw lub licencji. Użytkownicy odpowiedzialni są za przestrzeganie tych zasad.