Nasz serwis internetowy oraz podmioty z nim współpracujące takie jak reklamodawcy, firmy badające rynek, dostawcy usług oraz treści, korzystają z plików Cookies zapisywanych na Twoim urządzeniu w celach identyfikacyjnych, reklamowych oraz statystycznych. Dzięki temu możemy między innymi dostosować wygląd strony do indywidualnych potrzeb użytkowników. W przeglądarce internetowej możesz zmienić ustawienia dotyczące Cookies. Instrukcje zmiany ustawień dla najpopularniejszych przeglądarek znajdziesz tutaj: Chrome, Firefox, Internet Explorer, Opera i Safari. Jeżeli nie wyrażasz zgody na wykorzystywanie przez nas mechanizmu Cookies, wyłącz ich obsługę w ustawieniach swojej przeglądarki.
Więcej informacji możesz znaleźć w Informacje o plikach cookies.
Haszkod.pl - Strona główna
szukaj
| |
Haszkod jest możliwy do pobrania za pomocą programu Mailshare.


Niesamowity Spider-Man / The Amazing Spider-Man [BRRip] [2012][Dubbing PL]

Niesamowity Spider-Man / The Amazing Spider-Man [BRRip] [2012][Dubbing PL]
sprawność: 100%
Zdobądź lepszą rangę,
aby oceniać haszkody.

Pokaż hashcode

Zaloguj się!

Dopiero po utworzeniu konta w serwisie, możliwe jest korzystanie z zawartości.

Rejestracja!
Dodał: MckZ
Należy pobrać przez: Ygoow
Kategoria: Filmy Rozmiar: 762 MB
Podkategoria: High Quality Pobrań: 1152
Data dodania: 26-10-2012 15:27 Data premiery: 28 czerwca 2012
Zawiera 10% danych naprawczych
HASŁO DO WYPAKOWANIA: www.haszkod.pl



Andrew Garfield-Spider-Man / Peter Parker
Emma Stone-Gwen Stacy
Rhys Ifans-Jaszczur / Dr Curt Connors
Denis Leary-Kapitan Stacy
Martin Sheen-Wujek Ben
Sally Field-Ciocia May
Irrfan Khan-Rajit Ratha
Campbell Scott-Richard Parker
i inni


Nastoletni samotnik, Peter Parker (Andrew Garfield), który wychował się w domu stryja, stara się dowiedzieć, dlaczego rodzice jako dziecko oddali go krewnym. Prywatne śledztwo w tej sprawie doprowadza go do doktora Curta Connorsa (Rhys Ifans), dawnego współpracownika ojca. Naukowiec nie chce jednak zdradzić Peterowi tajemnicy jego rodziny. Młody Parker, który po ukąszeniu przez pająka o zmodyfikowanym DNA zmienia się we wspinającego się po ścianach Spider-Mana, już wkrótce przekonuje się, że także Connors ma drugie oblicze. Jako Jaszczur staje się największym wrogiem Petera, ale nie jedynym. Spider-Man walczy z przestępcami w Nowym Jorku, ale przez policję sam uważany jest za bandytę. Stróże prawa wciąż depczą mu po piętach. Czy Peter pozna prawdę o matce i ojcu? Czy uwolni miasto od coraz bardziej bezwzględnych złoczyńców?


Format : AVI
Format/Info : Audio Video Interleave
File size : 705 MiB
Duration : 2h 16mn
Overall bit rate : 723 Kbps

Video
ID : 0
Format : MPEG-4 Visual
Format profile : Advanced [email protected]
Format settings, BVOP : 2
Format settings, QPel : No
Format settings, GMC : No warppoints
Format settings, Matrix : Default (H.263)
Codec ID : XVID
Codec ID/Hint : XviD
Duration : 2h 16mn
Bit rate : 601 Kbps
Width : 624 pixels
Height : 256 pixels
Display aspect ratio : 2.40:1
Frame rate : 23.976 fps
Color space : YUV
Chroma subsampling : 4:2:0
Bit depth : 8 bits
Scan type : Progressive
Compression mode : Lossy
Bits/(Pixel*Frame) : 0.157
Stream size : 586 MiB (83%)
Writing library : XviD 64

Audio
ID : 1
Format : AC-3
Format/Info : Audio Coding 3
Mode extension : CM (complete main)
Codec ID : 2000
Duration : 2h 16mn
Bit rate mode : Constant
Bit rate : 112 Kbps
Channel(s) : 2 channels
Channel positions : Front: L R
Sampling rate : 48.0 KHz
Bit depth : 16 bits
Compression mode : Lossy
Stream size : 109 MiB (15%)
Alignment : Aligned on interleaves
Interleave, duration : 32 ms (0.77 video frame)




ostatnia modyfikacja: 27 października 2012, 12:16 (tytuł // edited by vasper)
Inne podobne haszkody dostępne w serwisie:
NazwaKategoriaSprawnośćRozmiarDodano
Niesamowity Spider-Man / The Amazing Spider-M..Filmy99%1,39 GB09-04-2014
Niesamowity Spider-man/The Amazing Spider-man..Filmy84%763 MB13-07-2012
Niesamowity Spider-Man / The Amazing Spider-M..Filmy100%768 MB21-10-2012
Niesamowity Spider-Man / The Amazing Spider-M..Filmy100%761 MB28-10-2012
Niesamowity Spider-Man / The Amazing Spider-M..Archiwum97%6,50 GB11-01-2013
Najwyżej ocenionione komentarze:
dubbing profesjonalny, aczkolwiek film o wiele lepiej prezentuje sie z napisami :)

4

1 0

26.10.2012
Fajny film

3

1 0

27.10.2012
Komentarze użytkowników:
Pobieramy pobieramy !! ;D

0

1 0

26.10.2012
Wszystko ok !!

-1

1 0

26.10.2012
michael093 jak to jaki ? Profesjonalny, polski dubbing.

0

1 0

26.10.2012
Dubbing kinowy czy profesjonalny, bo jak kinówka to wole napisy.

0

1 0

26.10.2012
dubbing profesjonalny, aczkolwiek film o wiele lepiej prezentuje sie z napisami :)

4

1 0

26.10.2012
dzieki

0

1 0

27.10.2012
Przyzwoity remake pierwszej ( kultowej ) części ...
Bo nie można tego nazywać czwartą częścią :D
To pisanie czegoś od nowa ^^

Kapka humorystyczna a i dubbing pasuje do tego filmu moim zdaniem :)

POLECAM !!!

1

1 0

27.10.2012
Fajny film

3

1 0

27.10.2012
Byłem na nim w kinie :P Polecam . Dla mnie lepszy nić poprzednie części z inną obsadą :)

2

1 0

27.10.2012
Syntezator mowy jako lektor!! ktoś jeszcze pisze że profesjonalny..no ludzie! Świetny żart

-9

1 0

27.10.2012
Galus świetny żart to chyba twoje czytanie ze zrozumieniem. Moja wstawka jest z ORYGINALNYM, POLSKIM DUBBINGIEM, a nie z lektorem.

2

1 0

27.10.2012
OK. Zwracam honor. Mój błąd. Nie ta wstawka

-11

1 0

27.10.2012
Zanim coś przelejesz ze swojej ,,bujnej wyobraźni,, na swoje jeszcze bardziej bujne palce użyj opcji ,,Myśl,, :D

2

1 0

27.10.2012
Spoko film :)

0

1 0

27.10.2012
Jak dla mnie rewelacja !! lepszy od pierwotnej wersji :) Baaaardzo polecam fanom sci- fiction ;)

0

1 0

28.10.2012
wszystko ok

0

1 0

28.10.2012
Film gitara:)) Dzięki

0

1 0

28.10.2012
dziekuje i pozdrawiam,, film jezeli chodzi o jakosc ,, ja oceniam na super

0

1 0

28.10.2012
Jakość filmu jak i dubbing bardzo dobra, sam film jest nawet spoko ale nie powala. :)

0

1 0

28.10.2012
Działa, a co do filmu, to jestem mile zaskoczony. Gorąco polecam :)

0

1 0

28.10.2012
Wszystko ok, dzięki

0

1 0

29.10.2012
Wszystko ok dz za wstawke.pozdro!!

0

1 0

30.10.2012
Wszystko Sprawne.Polecam!:)

0

1 0

04.11.2012
Wszystko OK. Dzięki...

0

1 0

17.11.2012
Dodaj komentarz:
Zasady pisania komentarzy w serwisie Haszkod.pl :
  • Zakaz podawania adresów stron o podobnej tematyce.
  • Zakaz wklejania linków do alternatywnej metody ściągnięcia tej samej rzeczy.
  • Zakaz składania próśb o upload, jest do tego specjalny dział.
  • Zakaz wklejania hashcodów w treści komentarzy.
Wypowiedzi w komentarzach powinny być formułowane w sposób uprzejmy, z poszanowaniem innych użytkowników i ich stanowisk.

Autor:
Treść:

+ - | b u i

Możesz jeszcze wpisać: znaków.

Żaden z plików nie znajduje się na serwerze. Hashcody są własnością użytkowników. Administrator serwisu nie może ponieść konsekwencji za to co użytkownicy wstawiają lub za to co czynią na stronie.
Nie możesz używać tego serwisu do rozpowszechniania lub ściągania materiałów do których nie masz odpowiednich praw lub licencji. Użytkownicy odpowiedzialni są za przestrzeganie tych zasad.