Nasz serwis internetowy oraz podmioty z nim współpracujące takie jak reklamodawcy, firmy badające rynek, dostawcy usług oraz treści, korzystają z plików Cookies zapisywanych na Twoim urządzeniu w celach identyfikacyjnych, reklamowych oraz statystycznych. Dzięki temu możemy między innymi dostosować wygląd strony do indywidualnych potrzeb użytkowników. W przeglądarce internetowej możesz zmienić ustawienia dotyczące Cookies. Instrukcje zmiany ustawień dla najpopularniejszych przeglądarek znajdziesz tutaj: Chrome, Firefox, Internet Explorer, Opera i Safari. Jeżeli nie wyrażasz zgody na wykorzystywanie przez nas mechanizmu Cookies, wyłącz ich obsługę w ustawieniach swojej przeglądarki.
Więcej informacji możesz znaleźć w Informacje o plikach cookies.
Haszkod.pl - Strona główna
szukaj
| |


Nigdy nie mów nigdy / Never Say Never Again [DVDRip] [1983][Lektor PL]

Nigdy nie mów nigdy / Never Say Never Again [DVDRip] [1983][Lektor PL]
sprawność: 50%
Zdobądź lepszą rangę,
aby oceniać haszkody.

Pokaż hashcode

Zaloguj się!

Dopiero po utworzeniu konta w serwisie, możliwe jest korzystanie z zawartości.

Rejestracja!
Dodał: micpap
Należy pobrać przez: MailShare
Kategoria: Filmy Rozmiar: 1,50 GB
Podkategoria: High Quality Pobrań: 21
Data dodania: 21-03-2014 22:04 Data premiery: 06 października 1983





James Bond (Sean Connery) to numer jeden brytyjskiej
Tajnej Służby. Genialna intuicja, odwaga i doskonałe
wyszkolenie sprawiają, że misje swe kończy sukcesem. Tym
czasem ma powstrzymać operację terrorystyczną prowadzoną
przez swego wieloletniego wroga Ernsta Blofelda (Max von
Sydow). Trop prowadzi z Anglii na Bahamy i do południowej
Francji. Śladem Bonda podąża płatny morderca - piękna i
uwodzicielska Fatima (Barbara Carrera). Na swej drodze
James spotyka groźnego Largo (Klaus Maria Brandauer) i
jego tajemniczą kochankę - pełną wdzięku Domino (Kim
Basinger), która szybko ulega czarowi przystojnego
agenta. Przy pomocy swojego amerykańskiego przyjaciela
Felixa (Bernie Casey), James Bond doprowadza akcję do
dramatycznego zakończenia.




Ogólnie

Format : AVI
Format/Info : Audio Video Interleave
File size : 1.36 GiB
Duration : 2h 8mn
Overall bit rate : 1 522 Kbps

Video

ID : 0
Format : MPEG-4 Visual
Format profile : Advanced [email protected]
Format settings, Matrix : Default (MPEG)
Codec ID : XVID
Codec ID/Hint : XviD
Duration : 2h 8mn
Bit rate : 1 321 Kbps
Width : 656 pixels
Height : 304 pixels
Display aspect ratio : 2.2:1
Frame rate : 25.000 fps
Stream size : 1.18 GiB (87%)

Audio

ID : 1
Format : AC-3
Format/Info : Audio Coding 3
Format settings, Endianness : Big
Codec ID : 2000
Duration : 2h 8mn
Bit rate mode : Constant
Bit rate : 192 Kbps
Channel count : 2 channels
Sampling rate : 48.0 KHz
Stream size : 176 MiB (13%)
Interleave, duration : 40 ms (1.00 video frame)













Upload zawiera 10% danych naprawczych !

Inne podobne haszkody dostępne w serwisie:
NazwaKategoriaSprawnośćRozmiarDodano
Nigdy nie mów nigdy / Never Say Never Again [..Filmy90%1,37 GB12-04-2014
Nigdy nie mów nigdy [DVDRip] [2009][PL]Filmy95%701 MB23-02-2010
Nigdy Nie Mów Nigdy [RMVB] [2009][PL]Filmy50%331 MB23-02-2010
Molesta Ewenement - Nigdy Nie Mów Nigdy [FLAC..Muzyka86%528 MB23-02-2010
Molesta Ewenement - Nigdy Nie Mów Nigdy [FLAC..Muzyka50%481 MB07-07-2013
Dodaj komentarz:
Zasady pisania komentarzy w serwisie Haszkod.pl :
  • Zakaz podawania adresów stron o podobnej tematyce.
  • Zakaz wklejania linków do alternatywnej metody ściągnięcia tej samej rzeczy.
  • Zakaz składania próśb o upload, jest do tego specjalny dział.
  • Zakaz wklejania hashcodów w treści komentarzy.
Wypowiedzi w komentarzach powinny być formułowane w sposób uprzejmy, z poszanowaniem innych użytkowników i ich stanowisk.

Autor:
Treść:

+ - | b u i

Możesz jeszcze wpisać: znaków.

Żaden z plików nie znajduje się na serwerze. Hashcody są własnością użytkowników. Administrator serwisu nie może ponieść konsekwencji za to co użytkownicy wstawiają lub za to co czynią na stronie.
Nie możesz używać tego serwisu do rozpowszechniania lub ściągania materiałów do których nie masz odpowiednich praw lub licencji. Użytkownicy odpowiedzialni są za przestrzeganie tych zasad.