Nasz serwis internetowy oraz podmioty z nim współpracujące takie jak reklamodawcy, firmy badające rynek, dostawcy usług oraz treści, korzystają z plików Cookies zapisywanych na Twoim urządzeniu w celach identyfikacyjnych, reklamowych oraz statystycznych. Dzięki temu możemy między innymi dostosować wygląd strony do indywidualnych potrzeb użytkowników. W przeglądarce internetowej możesz zmienić ustawienia dotyczące Cookies. Instrukcje zmiany ustawień dla najpopularniejszych przeglądarek znajdziesz tutaj: Chrome, Firefox, Internet Explorer, Opera i Safari. Jeżeli nie wyrażasz zgody na wykorzystywanie przez nas mechanizmu Cookies, wyłącz ich obsługę w ustawieniach swojej przeglądarki.
Więcej informacji możesz znaleźć w Informacje o plikach cookies.
Haszkod.pl - Strona główna
szukaj
| |


Projekt Dinozaur / The Dinosaur Project [BRRip] [2012][Lektor PL]

Projekt Dinozaur  / The Dinosaur Project [BRRip] [2012][Lektor PL]
sprawność: 97%
Zdobądź lepszą rangę,
aby oceniać haszkody.

Pokaż hashcode

Zaloguj się!

Dopiero po utworzeniu konta w serwisie, możliwe jest korzystanie z zawartości.

Rejestracja!
Dodał: mateusz7307
Należy pobrać przez: MailShare
Kategoria: Filmy Rozmiar: 1,50 GB
Podkategoria: High Quality Pobrań: 203
Data dodania: 26-02-2014 22:36 Data premiery: 10 sierpnia 2012
Grupa badaczy udaje się na wyprawę do afrykańskiej dżungli w poszukiwaniu mitycznego wodnego stworzenia.


Format : AVI
Format/Info : Audio Video Interleave
File size : 1.37 GiB
Duration : 1h 22mn
Overall bit rate : 2 366 Kbps

Video
ID : 0
Format : MPEG-4 Visual
Format profile : Advanced [email protected]
Format settings, BVOP : 1
Format settings, QPel : No
Format settings, GMC : No warppoints
Format settings, Matrix : Default (H.263)
Muxing mode : Packed bitstream
Codec ID : XVID
Codec ID/Hint : XviD
Duration : 1h 22mn
Bit rate : 2 102 Kbps
Width : 720 pixels
Height : 304 pixels
Display aspect ratio : 2.35:1
Frame rate : 23.976 fps
Color space : YUV
Chroma subsampling : 4:2:0
Bit depth : 8 bits
Scan type : Progressive
Compression mode : Lossy
Bits/(Pixel*Frame) : 0.401
Stream size : 1.22 GiB (89%)
Writing library : XviD 1.2.1 (UTC 2008-12-04)

Audio
ID : 1
Format : AC-3
Format/Info : Audio Coding 3
Mode extension : CM (complete main)
Format settings, Endianness : Big
Codec ID : 2000
Duration : 1h 22mn
Bit rate mode : Constant
Bit rate : 256 Kbps
Channel count : 2 channels
Channel positions : Front: L R
Sampling rate : 48.0 KHz
Bit depth : 16 bits
Compression mode : Lossy
Stream size : 152 MiB (11%)
Alignment : Aligned on interleaves
Interleave, duration : 64 ms (1.53 video frames)
Interleave, preload duration : 192 ms
Title : savage40


ostatnia modyfikacja: 26 lutego 2014, 22:28 (Nazwa // edited by _RPK_)
Inne podobne haszkody dostępne w serwisie:
NazwaKategoriaSprawnośćRozmiarDodano
Dobry dinozaur / The Good Dinosaur [1080p] [2..Filmy97%6,85 GB16-02-2017
Dobry dinozaur / The Good Dinosaur [480p][BDR..Filmy92%1,01 GB12-04-2021
Dinozaur / Dinosaur [DVDRip] [2000][Dubbing P..Filmy94%693 MB28-10-2011
Dinozaur / Dinosaur [DVDRip] [2000][Dubbing ..Filmy95%643 MB22-09-2017
The Dinosaur Project [DVDRip] [2012][ENG]Filmy93%768 MB08-09-2012
Najwyżej ocenionione komentarze:
Komentarze użytkowników:
Wszystko ok.

0

1 0

27.02.2014
Warto pobierać?

0

1 0

01.03.2014
wszystko ok

0

1 0

02.03.2014
Dodaj komentarz:
Zasady pisania komentarzy w serwisie Haszkod.pl :
  • Zakaz podawania adresów stron o podobnej tematyce.
  • Zakaz wklejania linków do alternatywnej metody ściągnięcia tej samej rzeczy.
  • Zakaz składania próśb o upload, jest do tego specjalny dział.
  • Zakaz wklejania hashcodów w treści komentarzy.
Wypowiedzi w komentarzach powinny być formułowane w sposób uprzejmy, z poszanowaniem innych użytkowników i ich stanowisk.

Autor:
Treść:

+ - | b u i

Możesz jeszcze wpisać: znaków.

Żaden z plików nie znajduje się na serwerze. Hashcody są własnością użytkowników. Administrator serwisu nie może ponieść konsekwencji za to co użytkownicy wstawiają lub za to co czynią na stronie.
Nie możesz używać tego serwisu do rozpowszechniania lub ściągania materiałów do których nie masz odpowiednich praw lub licencji. Użytkownicy odpowiedzialni są za przestrzeganie tych zasad.