Nasz serwis internetowy oraz podmioty z nim współpracujące takie jak reklamodawcy, firmy badające rynek, dostawcy usług oraz treści, korzystają z plików Cookies zapisywanych na Twoim urządzeniu w celach identyfikacyjnych, reklamowych oraz statystycznych. Dzięki temu możemy między innymi dostosować wygląd strony do indywidualnych potrzeb użytkowników. W przeglądarce internetowej możesz zmienić ustawienia dotyczące Cookies. Instrukcje zmiany ustawień dla najpopularniejszych przeglądarek znajdziesz tutaj: Chrome, Firefox, Internet Explorer, Opera i Safari. Jeżeli nie wyrażasz zgody na wykorzystywanie przez nas mechanizmu Cookies, wyłącz ich obsługę w ustawieniach swojej przeglądarki.
Więcej informacji możesz znaleźć w Informacje o plikach cookies.
Haszkod.pl - Strona główna
szukaj
| |


Robot Jox - Bezlitośni mordercy / Robot Jox [RMVB] [1990][Lektor PL]

Robot Jox - Bezlitośni mordercy / Robot Jox [RMVB] [1990][Lektor PL]
sprawność: 88%
Zdobądź lepszą rangę,
aby oceniać haszkody.

Pokaż hashcode

Zaloguj się!

Dopiero po utworzeniu konta w serwisie, możliwe jest korzystanie z zawartości.

Rejestracja!
Dodał: user333
Należy pobrać przez: MailShare
Kategoria: Filmy Rozmiar: 364 MB
Podkategoria: RMVB Pobrań: 49
Data dodania: 06-02-2013 17:48 Data premiery: 01 stycznia 1990


gatunek: Akcja, Sci-Fi,
produkcja: USA,
premiera: 22 maja 1990 (świat) 1990-05-22
reżyseria: Stuart Gordon,
scenariusz: Joe Haldeman,


W świecie po III Wojnie Światowej wojny są zakazane. Zamiast nich organizowane są mecze wielkich robotów
zwanych Robot Jox. Ich celem są rozgrywki między mocarstwami o sporne terytoria. Główny bohater,
Achilles, jest pilotem takiego robota. Akcja filmu koncentruje się na jego rozgrywce o Alaskę.







=========================================================

Format : RealMedia
File size : 336 MiB
Duration : 1h 24mn
Overall bit rate : 544 Kbps

Video
ID : 1
Format : RealVideo 4
Codec ID : RV40
Codec ID/Info : Based on AVC (H.264), Real Player 9
Duration : 1h 24mn
Bit rate : 448 Kbps
Width : 640 pixels
Height : 336 pixels
Display aspect ratio : 1.905
Frame rate : 23.976 fps
Bits/(Pixel*Frame) : 0.087
Stream size : 270 MiB (80%)

Audio
ID : 0
Format : Cooker
Codec ID : cook
Codec ID/Info : Based on G.722.1, Real Player 6
Duration : 1h 24mn
Bit rate : 95.8 Kbps
Channel(s) : 2 channels
Sampling rate : 44.1 KHz
Bit depth : 16 bits
Stream size : 57.6 MiB (17%)

============================================================



Inne podobne haszkody dostępne w serwisie:
NazwaKategoriaSprawnośćRozmiarDodano
Robot Jox - Bezlitośni mordercy / Robot Jox [..Filmy50%374 MB25-01-2013
Robot Jox 3 - Wojny Robotów / Robot Wars [DVD..Filmy88%761 MB06-02-2013
Robot Jox 2 - Program: zniszczenie / Crash an..Filmy88%1,61 GB05-02-2013
Rysopis mordercy / The Sketch Artist / Portra..Filmy75%8,16 GB09-04-2022
Ja, robot | I, robot [RMVB] [2004][Lektor PL..Filmy84%425 MB28-08-2010
Najwyżej ocenionione komentarze:
Komentarze użytkowników:
Upload na prośbę mercedes12

0

1 0

06.02.2013
thx:) przypomnienie mlodosci bedzie:)

0

1 0

06.02.2013
problem z hasłem nie działa co to może być jakie hasło

0

1 0

05.04.2013
Uszkodzone segmenty w trakcie pobierania i hasło nie pyka.Pobrać jeszcze raz lub naprawić rar.

0

1 0

08.04.2013
Dodaj komentarz:
Zasady pisania komentarzy w serwisie Haszkod.pl :
  • Zakaz podawania adresów stron o podobnej tematyce.
  • Zakaz wklejania linków do alternatywnej metody ściągnięcia tej samej rzeczy.
  • Zakaz składania próśb o upload, jest do tego specjalny dział.
  • Zakaz wklejania hashcodów w treści komentarzy.
Wypowiedzi w komentarzach powinny być formułowane w sposób uprzejmy, z poszanowaniem innych użytkowników i ich stanowisk.

Autor:
Treść:

+ - | b u i

Możesz jeszcze wpisać: znaków.

Żaden z plików nie znajduje się na serwerze. Hashcody są własnością użytkowników. Administrator serwisu nie może ponieść konsekwencji za to co użytkownicy wstawiają lub za to co czynią na stronie.
Nie możesz używać tego serwisu do rozpowszechniania lub ściągania materiałów do których nie masz odpowiednich praw lub licencji. Użytkownicy odpowiedzialni są za przestrzeganie tych zasad.