Nasz serwis internetowy oraz podmioty z nim współpracujące takie jak reklamodawcy, firmy badające rynek, dostawcy usług oraz treści, korzystają z plików Cookies zapisywanych na Twoim urządzeniu w celach identyfikacyjnych, reklamowych oraz statystycznych. Dzięki temu możemy między innymi dostosować wygląd strony do indywidualnych potrzeb użytkowników. W przeglądarce internetowej możesz zmienić ustawienia dotyczące Cookies. Instrukcje zmiany ustawień dla najpopularniejszych przeglądarek znajdziesz tutaj: Chrome, Firefox, Internet Explorer, Opera i Safari. Jeżeli nie wyrażasz zgody na wykorzystywanie przez nas mechanizmu Cookies, wyłącz ich obsługę w ustawieniach swojej przeglądarki.
Więcej informacji możesz znaleźć w Informacje o plikach cookies.
Haszkod.pl - Strona główna
szukaj
| |


Samoloty / Planes [BRRip][Dubbink PL - kino] [2013]

Samoloty / Planes [BRRip][Dubbink PL - kino] [2013]
sprawność: 98%
Zdobądź lepszą rangę,
aby oceniać haszkody.

Pokaż hashcode

Zaloguj się!

Dopiero po utworzeniu konta w serwisie, możliwe jest korzystanie z zawartości.

Rejestracja!
Dodał: mlody999
Należy pobrać przez: MailShare
Kategoria: Filmy Rozmiar: 1,52 GB
Podkategoria: High Quality Pobrań: 202
Data dodania: 07-11-2013 15:49 Data premiery: 05 sierpnia 2013







Po ogromnym sukcesie produkcji "Auta" i "Auta 2" Wytwórnia Disney/Pixar zaprasza w podniebną podróż w filmie "Samoloty". Dusty samolot rolniczym, mały rozmiarem ale wielki duchem, marzy o wystartowaniu w największym w historii wyścigu powietrznym dookoła świata. Jednak w przeciwieństwie do wszystkich uczestników zawodów, nie jest stworzony do ścigania się i w dodatku cierpi na lęk wysokości... Dzięki wsparciu przyjaciół i wielkiej odwadze Dusty?emu udaje się przezwyciężyćć wszystkie trudności i spełnić swoje marzenia. Samoloty to niezwykły film, który pokazuje, że dzięki sile charakteru, odwadze i przyjaźni można wzbić się ponad przeciętność i osiągnąć nieosiągalne.



General
Format : AVI
Format/Info : Audio Video Interleave
File size : 1.40 GiB
Duration : 1h 31mn
Overall bit rate : 2 198 Kbps
Writing library : VirtualDub build 30080/release

Video
ID : 0
Format : MPEG-4 Visual
Format profile : Advanced [email protected]
Format settings, BVOP : Yes
Format settings, QPel : No
Format settings, GMC : No warppoints
Format settings, Matrix : Default (H.263)
Codec ID : XVID
Codec ID/Hint : XviD
Duration : 1h 31mn
Bit rate : 1 804 Kbps
Width : 720 pixels
Height : 400 pixels
Display aspect ratio : 16:9
Frame rate : 23.976 fps
Color space : YUV
Chroma subsampling : 4:2:0
Bit depth : 8 bits
Scan type : Progressive
Compression mode : Lossy
Bits/(Pixel*Frame) : 0.261
Stream size : 1.15 GiB (82%)
Writing library : XviD 64

Audio
ID : 1
Format : AC-3
Format/Info : Audio Coding 3
Mode extension : CM (complete main)
Format settings, Endianness : Big
Codec ID : 2000
Duration : 1h 31mn
Bit rate mode : Constant
Bit rate : 384 Kbps
Channel count : 2 channels
Channel positions : Front: L R
Sampling rate : 48.0 KHz
Bit depth : 16 bits
Compression mode : Lossy
Stream size : 251 MiB (17%)
Alignment : Split accross interleaves
Interleave, duration : 42 ms (1.00 video frame)
Interleave, preload duration : 500 ms
































ostatnia modyfikacja: 08 listopada 2013, 17:07 (wersja językowa // edited by vasper)
Inne podobne haszkody dostępne w serwisie:
NazwaKategoriaSprawnośćRozmiarDodano
Samoloty / Planes [BRRip] [2013][Dubbing PL]Filmy100%766 MB01-11-2013
Samoloty / Planes [480p][AC3][BRRip] [2013][..Filmy99%1,51 GB10-12-2013
Samoloty 2 / Planes: Fire & Rescue [BRRip..Filmy100%700 MB11-11-2014
Planes Samoloty [BDRip][x264] [2013][Dubbing..Filmy99%768 MB09-12-2013
Planes / Samoloty [1080p][x264] [2013][Dubbin..Filmy98%6,11 GB12-12-2013
Najwyżej ocenionione komentarze:
"Tytuł posiada pełną licencję ligi NBA, dzięki czemu grająca osoba może wcielić się w największe gwiazdy koszykówki i pokierować ulubionymi drużynami." :D

4

1 0

07.11.2013
Komentarze użytkowników:
"Tytuł posiada pełną licencję ligi NBA, dzięki czemu grająca osoba może wcielić się w największe gwiazdy koszykówki i pokierować ulubionymi drużynami." :D

4

1 0

07.11.2013
Przez przypadek nie usunąłem starego opisu, sorki, już poprawiłem :)

0

1 0

07.11.2013
Dźwiek totalne dno:(

0

1 0

07.11.2013
Upload sprawny ale dźwięk kinówka. Szkoda, że dodane do opisu takie info.

0

1 0

08.11.2013
Dubbing nie dubbink.

0

1 0

10.11.2013
sama baja okiej,dzięki.

0

1 0

24.11.2013
Dodaj komentarz:
Zasady pisania komentarzy w serwisie Haszkod.pl :
  • Zakaz podawania adresów stron o podobnej tematyce.
  • Zakaz wklejania linków do alternatywnej metody ściągnięcia tej samej rzeczy.
  • Zakaz składania próśb o upload, jest do tego specjalny dział.
  • Zakaz wklejania hashcodów w treści komentarzy.
Wypowiedzi w komentarzach powinny być formułowane w sposób uprzejmy, z poszanowaniem innych użytkowników i ich stanowisk.

Autor:
Treść:

+ - | b u i

Możesz jeszcze wpisać: znaków.

Żaden z plików nie znajduje się na serwerze. Hashcody są własnością użytkowników. Administrator serwisu nie może ponieść konsekwencji za to co użytkownicy wstawiają lub za to co czynią na stronie.
Nie możesz używać tego serwisu do rozpowszechniania lub ściągania materiałów do których nie masz odpowiednich praw lub licencji. Użytkownicy odpowiedzialni są za przestrzeganie tych zasad.