Nasz serwis internetowy oraz podmioty z nim współpracujące takie jak reklamodawcy, firmy badające rynek, dostawcy usług oraz treści, korzystają z plików Cookies zapisywanych na Twoim urządzeniu w celach identyfikacyjnych, reklamowych oraz statystycznych. Dzięki temu możemy między innymi dostosować wygląd strony do indywidualnych potrzeb użytkowników. W przeglądarce internetowej możesz zmienić ustawienia dotyczące Cookies. Instrukcje zmiany ustawień dla najpopularniejszych przeglądarek znajdziesz tutaj: Chrome, Firefox, Internet Explorer, Opera i Safari. Jeżeli nie wyrażasz zgody na wykorzystywanie przez nas mechanizmu Cookies, wyłącz ich obsługę w ustawieniach swojej przeglądarki.
Więcej informacji możesz znaleźć w Informacje o plikach cookies.
Haszkod.pl - Strona główna
szukaj
| |


Sęp [1080p][x264] [2013][PL]

Sęp [1080p][x264] [2013][PL]
sprawność: 84%
Zdobądź lepszą rangę,
aby oceniać haszkody.

Pokaż hashcode

Zaloguj się!

Dopiero po utworzeniu konta w serwisie, możliwe jest korzystanie z zawartości.

Rejestracja!
Dodał: mlody999
Należy pobrać przez: MailShare
Kategoria: Filmy Rozmiar: 11,48 GB
Podkategoria: 1080p / 720p Pobrań: 53
Data dodania: 30-09-2013 21:42 Data premiery: 11 stycznia 2013



Wyobraź sobie, że masz moc decydowania o ludzkim życiu. Kogo byś potępił, a kogo ocalił? W centrum Europy nagle, bez śladu, zaczynają znikać ludzie. Śledztwo trafia w ręce Sępa (Michał Żebrowski) - policjanta, który wydaje się być pozbawiony uczuć. Twardy, nieprzekupny, bez zobowiązań i przysług do wyświadczenia innym. Do czasu, aż poznaje Nataszę (Anna Przybylska) - kobietę inną niż te, które spotykał do tej pory. Sęp rozpocznie niebezpieczną grę z przeciwnikiem wyprzedzającym go wciąż o krok. Odkryje świat, w którym ludzie prowadzą podwójne życie. Pierwszy raz, logiczne myślenie wpędzi go w pułapkę bez wyjścia. Nagle z łowcy zamieni się w zwierzynę. Balansując na granicy namiętności i rozumu, świata logiki i sprytnej manipulacji, będzie musiał odpowiedzieć na pytanie: czy jest coś ważniejszego niż życie? Michał Żebrowski, Anna Przybylska, Paweł Małaszyński, Daniel Olbrychski, Andrzej Grabowski, Andrzej Seweryn, Mirosław Baka, Przemysław Sadowski i Piotr Fronczewski odkryją ciemną stronę ludzkiej duszy.






General
Complete name : C:Usersszymo_000DownloadsSep.2012.PL.1080p.BluRay.x264.AC3.CiNEMAET-swbSep.2012.PL.1080p.BluRay.x264.AC3.CiNEMAET.mkv
Format : Matroska
Format version : Version 1
File size : 10.3 GiB
Duration : 2h 7mn
Overall bit rate mode : Variable
Overall bit rate : 11.6 Mbps
Encoded date : UTC 2013-09-15 01:55:43
Writing application : mkvmerge v2.2.0 ('Turn It On Again') built on Mar 4 2008 12:58:26
Writing library : libebml v0.7.7 + libmatroska v0.8.1

Video
ID : 1
Format : AVC
Format/Info : Advanced Video Codec
Format profile : [email protected]
Format settings, CABAC : Yes
Format settings, ReFrames : 4 frames
Codec ID : V_MPEG4/ISO/AVC
Duration : 2h 7mn
Bit rate mode : Variable
Bit rate : 11.0 Mbps
Maximum bit rate : 40.0 Mbps
Width : 1 872 pixels
Height : 804 pixels
Display aspect ratio : 2.35:1
Frame rate mode : Constant
Frame rate : 25.000 fps
Color space : YUV
Chroma subsampling : 4:2:0
Bit depth : 8 bits
Scan type : Progressive
Bits/(Pixel*Frame) : 0.292
Stream size : 9.57 GiB (93%)
Writing library : x264 core 120 r2164 da19765
Language : Polish
Default : Yes
Forced : No

Audio
ID : 2
Format : AC-3
Format/Info : Audio Coding 3
Mode extension : CM (complete main)
Format settings, Endianness : Big
Codec ID : A_AC3
Duration : 2h 7mn
Bit rate mode : Constant
Bit rate : 640 Kbps
Channel(s) : 6 channels
Channel positions : Front: L C R, Side: L R, LFE
Sampling rate : 48.0 KHz
Bit depth : 16 bits
Compression mode : Lossy
Stream size : 582 MiB (5%)
Language : Polish
Default : Yes
Forced : No





]





















]




Pliki trzymam na dysku tydzień od wstawienia, po upływie tego czasu nie naprawiam uploadów.
ostatnia modyfikacja: 01 października 2013, 17:49 (Opis / Wersja językowa // edited by _RPK_)
Inne podobne haszkody dostępne w serwisie:
NazwaKategoriaSprawnośćRozmiarDodano
Sęp [DVDRip] [2013][PL]Filmy100%1,49 GB06-07-2013
Sęp [720p] [2013][PL]Filmy92%7,59 GB14-07-2013
Sęp [720p] [2013][PL]Filmy84%6,41 GB01-08-2013
Sęp [DVDRip] [2013][PL]Filmy99%773 MB15-09-2013
Sęp [DVDRip] [2013][PL]Filmy98%762 MB27-12-2013
Najwyżej ocenionione komentarze:
Komentarze użytkowników:
nie da sie wypakować

0

1 0

02.11.2013
Jakie hasło wpisywać przy ściąganiu bo www.haszkod.pl wyskakuje mi,że jest zablokowane?

0

1 0

27.01.2017
emace

Jeżeli ktoś ma problemy z hasłem należy wtedy zaaktualizować program Mailshare poprzez Pomoc --> Sprawdź aktualizację. Gdyby to nie pomogło należy wtedy odinstalować program, pobrać czysty plik instalacyjny z programem Mailshare i zainstalować ten program ponownie. Podczas pierwszego uruchomienia programu po instalacji powinien pojawić się komunikat o nowej aktualizacji programu Mailshare

0

1 0

27.01.2017
Żaden z plików nie znajduje się na serwerze. Hashcody są własnością użytkowników. Administrator serwisu nie może ponieść konsekwencji za to co użytkownicy wstawiają lub za to co czynią na stronie.
Nie możesz używać tego serwisu do rozpowszechniania lub ściągania materiałów do których nie masz odpowiednich praw lub licencji. Użytkownicy odpowiedzialni są za przestrzeganie tych zasad.