Nasz serwis internetowy oraz podmioty z nim współpracujące takie jak reklamodawcy, firmy badające rynek, dostawcy usług oraz treści, korzystają z plików Cookies zapisywanych na Twoim urządzeniu w celach identyfikacyjnych, reklamowych oraz statystycznych. Dzięki temu możemy między innymi dostosować wygląd strony do indywidualnych potrzeb użytkowników. W przeglądarce internetowej możesz zmienić ustawienia dotyczące Cookies. Instrukcje zmiany ustawień dla najpopularniejszych przeglądarek znajdziesz tutaj: Chrome, Firefox, Internet Explorer, Opera i Safari. Jeżeli nie wyrażasz zgody na wykorzystywanie przez nas mechanizmu Cookies, wyłącz ich obsługę w ustawieniach swojej przeglądarki.
Więcej informacji możesz znaleźć w Informacje o plikach cookies.
Haszkod.pl - Strona główna
szukaj
| |


Snitch / Infiltrator [BDRip] [2013][Lektor PL]

Snitch / Infiltrator [BDRip] [2013][Lektor PL]
sprawność: 100%
Zdobądź lepszą rangę,
aby oceniać haszkody.

Pokaż hashcode

Zaloguj się!

Dopiero po utworzeniu konta w serwisie, możliwe jest korzystanie z zawartości.

Rejestracja!
Dodał: MckZ
Należy pobrać przez: MailShare
Kategoria: Filmy Rozmiar: 758 MB
Podkategoria: High Quality Pobrań: 1279
Data dodania: 31-07-2013 18:47 Data premiery: 21 lutego 2013
Zawiera 10% danych naprawczych
HASŁO DO WYPAKOWANIA: www.haszkod.pl



Dwayne Johnson...John Matthews
Barry Pepper...Agent Cooper
Jon Bernthal...Daniel James
Susan Sarandon...Joanne Keeghan
Michael Kenneth Williams...Malik (as Michael K. Williams)
Rafi Gavron...Jason Collins
Melina Kanakaredes...Sylvie Collins
Nadine Velazquez...Analisa
Benjamin Bratt...Juan Carlos 'El Topo' Pintera
Lela Loren...Vanessa
JD Pardo...Benicio
David Harbour...Jay Price
Harold Perrineau...Jeffrey Steele


Snitch" przedstawia interesującą, pełną napięcia historię ojca, Johna Matthewsa (w postać tę wciela się Dwayne Johnson) który chcąc uchronić swojego syna przed 10-letnią odsiadką w wiezieniu, za posiadanie i rzekomy handel narkotykami, decyduje się pomóc policji, pracując pod przykrywką, w ujęciu pomniejszego dilera narkotykowego. Jednakże sprawy przybierają nieoczekiwany obrót i wymykają się spod kontroli śledczych.


Format : AVI
Format/Info : Audio Video Interleave
File size : 697 MiB
Duration : 1h 51mn
Overall bit rate : 877 Kbps
Writing application : VirtualDubMod 1.5.10.2 (build 2540/release)
Writing library : VirtualDubMod build 2540/release

Video
ID : 0
Format : MPEG-4 Visual
Format profile : Advanced [email protected]
Format settings, BVOP : 2
Format settings, QPel : No
Format settings, GMC : No warppoints
Format settings, Matrix : Default (H.263)
Codec ID : XVID
Codec ID/Hint : XviD
Duration : 1h 51mn
Bit rate : 740 Kbps
Width : 640 pixels
Height : 272 pixels
Display aspect ratio : 2.35:1
Frame rate : 23.976 fps
Color space : YUV
Chroma subsampling : 4:2:0
Bit depth : 8 bits
Scan type : Progressive
Compression mode : Lossy
Bits/(Pixel*Frame) : 0.177
Stream size : 588 MiB (84%)
Writing library : XviD 1.2.1 (UTC 2008-12-04)

Audio
ID : 1
Format : MPEG Audio
Format version : Version 1
Format profile : Layer 3
Mode : Joint stereo
Mode extension : MS Stereo
Codec ID : 55
Codec ID/Hint : MP3
Duration : 1h 51mn
Bit rate mode : Constant
Bit rate : 128 Kbps
Channel(s) : 2 channels
Sampling rate : 48.0 KHz
Compression mode : Lossy
Stream size : 102 MiB (15%)
Alignment : Aligned on interleaves
Interleave, duration : 42 ms (1.00 video frame)
Interleave, preload duration : 504 ms








ostatnia modyfikacja: 01 sierpnia 2013, 20:46 (nazwa // edited by vasper)
Inne podobne haszkody dostępne w serwisie:
NazwaKategoriaSprawnośćRozmiarDodano
Infiltrator / Snitch [720p] [2013][ENG]Filmy92%4,75 GB03-06-2013
Infiltrator / Snitch [BRRip] [Napisy PL] [201..Archiwum99%689 MB02-06-2013
Snitch / Infiltrator [720p] [2013][Lektor PL]Filmy92%4,56 GB02-08-2013
Snitch / Infiltrator [1080p] [2013][Lektor PL..Filmy95%9,06 GB02-08-2013
Boss / The Infiltrator [720p][BDRip][AC3] [BD..Filmy97%3,56 GB13-11-2016
Najwyżej ocenionione komentarze:
Dzięki za wstawke. haszkod sprawny wypakowane bezproblemowo. zabieramy sie za oglądanie:)

3

1 0

31.07.2013
Komentarze użytkowników:
Dzięki za wstawke. haszkod sprawny wypakowane bezproblemowo. zabieramy sie za oglądanie:)

3

1 0

31.07.2013
Kocham ten film C:

0

1 0

02.08.2013
film szału nie robi a The Rock to w ogóle porażka!!
nie nadaje się do dramatów bo aktor z niego żaden^^

0

1 0

02.08.2013
tajne opinie szkoda ,że tylko dwie hihi obie skrajne odczucia .To w końcu warto czy nie warto oglądnąć hihi

0

1 0

02.08.2013
Film został pobrany i rozpakowany bez problemu. Wszystko OK

0

1 0

03.08.2013
dzieki

0

1 0

05.08.2013
jak jest dwayne to musi byc hit

0

1 0

13.09.2013
film jest dobry i tyle,pobrany bez problemu.

0

1 0

11.10.2013
Dodaj komentarz:
Zasady pisania komentarzy w serwisie Haszkod.pl :
  • Zakaz podawania adresów stron o podobnej tematyce.
  • Zakaz wklejania linków do alternatywnej metody ściągnięcia tej samej rzeczy.
  • Zakaz składania próśb o upload, jest do tego specjalny dział.
  • Zakaz wklejania hashcodów w treści komentarzy.
Wypowiedzi w komentarzach powinny być formułowane w sposób uprzejmy, z poszanowaniem innych użytkowników i ich stanowisk.

Autor:
Treść:

+ - | b u i

Możesz jeszcze wpisać: znaków.

Żaden z plików nie znajduje się na serwerze. Hashcody są własnością użytkowników. Administrator serwisu nie może ponieść konsekwencji za to co użytkownicy wstawiają lub za to co czynią na stronie.
Nie możesz używać tego serwisu do rozpowszechniania lub ściągania materiałów do których nie masz odpowiednich praw lub licencji. Użytkownicy odpowiedzialni są za przestrzeganie tych zasad.