Nasz serwis internetowy oraz podmioty z nim współpracujące takie jak reklamodawcy, firmy badające rynek, dostawcy usług oraz treści, korzystają z plików Cookies zapisywanych na Twoim urządzeniu w celach identyfikacyjnych, reklamowych oraz statystycznych. Dzięki temu możemy między innymi dostosować wygląd strony do indywidualnych potrzeb użytkowników. W przeglądarce internetowej możesz zmienić ustawienia dotyczące Cookies. Instrukcje zmiany ustawień dla najpopularniejszych przeglądarek znajdziesz tutaj: Chrome, Firefox, Internet Explorer, Opera i Safari. Jeżeli nie wyrażasz zgody na wykorzystywanie przez nas mechanizmu Cookies, wyłącz ich obsługę w ustawieniach swojej przeglądarki.
Więcej informacji możesz znaleźć w Informacje o plikach cookies.
Haszkod.pl - Strona główna
szukaj
| |


Szybcy i wściekli 8 / The Fate of the Furious [4K UHD][Dual Audio] [2017][Lektor PL]

Szybcy i wściekli 8 / The Fate of the Furious [4K UHD][Dual Audio] [2017][Lektor PL]
sprawność: 98%
Zdobądź lepszą rangę,
aby oceniać haszkody.

Pokaż hashcode

Zaloguj się!

Dopiero po utworzeniu konta w serwisie, możliwe jest korzystanie z zawartości.

Rejestracja!
Dodał: D_M
Należy pobrać przez: MailDownloader
Kategoria: Filmy Rozmiar: 41,35 GB
Podkategoria: 4K Pobrań: 135
Data dodania: 04-10-2017 02:29 Data premiery: 04 kwietnia 2017





Kompresja: WinRAR 5+

Hasło pobierania i archiwum: www.haszkod.pl



Opis:

Szczęśliwy miesiąc miodowy Dominica i Letty przerywa pojawienie się tajemniczej kobiety, która ponownie wciąga mężczyznę w świat zbrodni.




Video
Format : Matroska (HEVC)
Duration : 2 h 15 min
Bit rate : 38.1 Mb/s
Width : 3 840 pixels
Height : 1 606 pixels
Display aspect ratio : 2.40:1
Frame rate : 23.976 FPS
Bit depth : 10 bits
Stream size : 36.2 GiB (90%)

Audio #1
Format : DTS
Bit rate : 768 kb/s
Channel(s) : 6 channels
Stream size : 747 MiB (2%)
Language : Polish

Audio #2
Format : DTS
Bit rate : 3 348 kb/s / 3 348 kb/s / 1 509 kb/s
Channel(s) : 8 channels / 7 channels / 6 channels
Stream size : 3.18 GiB (8%)
Language : English

Text
Format : UTF-8
Language : Polish









Inne podobne haszkody dostępne w serwisie:
NazwaKategoriaSprawnośćRozmiarDodano
Szybcy i wściekli 8 / The Fate of the Furious..Filmy97%1,40 GB16-07-2017
Szybcy i wściekli 8 / The Fate of the Furious..Filmy98%5,15 GB18-06-2017
Szybcy i wściekli / Fast and the Furious [DVD..Filmy95%700 MB07-02-2010
Fast and the Furious 6 / Szybcy i wściekli 6 ..Filmy99%2,72 GB08-07-2013
Szybcy i wściekli: Tokio Drift / Fast and the..Filmy50%330 MB03-01-2010
Najwyżej ocenionione komentarze:
Bezawaryjnie pobrane i wypakowane :) Polecam

1

1 0

04.10.2017
Up ok, ale film to już bardziej pod gatunek transformers - dla fanów pierwszych części - porażka

1

1 0

05.10.2017
Komentarze użytkowników:
Bezawaryjnie pobrane i wypakowane :) Polecam

1

1 0

04.10.2017
Masakra z rozmiarem pliku mi wystarcz wielkość filmu około 1GB

0

1 0

04.10.2017
No to jeżeli Ci to starczy to masz też taka wstawke :-)

0

1 0

04.10.2017
Up ok, ale film to już bardziej pod gatunek transformers - dla fanów pierwszych części - porażka

1

1 0

05.10.2017
Wyniki ze sprawdzacza segmentów:
https://postimg.org/image/3k2c9o0x7v/
https://postimg.org/image/1l65jbyucr/
https://postimg.org/image/8rxmwnvum3/

Pobrało bez problemu:
https://postimg.org/image/704o1rdcl7/


Brak błędów podczas testowania archiwum:
https://postimg.org/image/5bvb4kkx97/


Wypakowało bez problemu:
https://postimg.org/image/86nzacyeaj/




WSTAWKA DZIAŁA!




Masz problemy z pobraniem wstawki?

Poczytaj dział FAQ (punkt 1 i 2):
http://www.haszkod.pl/artykuly,108,html

0

1 0

06.11.2017
nie wiem czemu ale w kazdym programie straszanie zacina :(

0

1 0

07.10.2018
zeuss35, bo to jest H.265/HEVC wymagający o wiele więcej mocy obliczeniowej niż stary H.264/MPEG-4 AVC

0

1 0

10.10.2018
Dodaj komentarz:
Zasady pisania komentarzy w serwisie Haszkod.pl :
  • Zakaz podawania adresów stron o podobnej tematyce.
  • Zakaz wklejania linków do alternatywnej metody ściągnięcia tej samej rzeczy.
  • Zakaz składania próśb o upload, jest do tego specjalny dział.
  • Zakaz wklejania hashcodów w treści komentarzy.
Wypowiedzi w komentarzach powinny być formułowane w sposób uprzejmy, z poszanowaniem innych użytkowników i ich stanowisk.

Autor:
Treść:

+ - | b u i

Możesz jeszcze wpisać: znaków.

Żaden z plików nie znajduje się na serwerze. Hashcody są własnością użytkowników. Administrator serwisu nie może ponieść konsekwencji za to co użytkownicy wstawiają lub za to co czynią na stronie.
Nie możesz używać tego serwisu do rozpowszechniania lub ściągania materiałów do których nie masz odpowiednich praw lub licencji. Użytkownicy odpowiedzialni są za przestrzeganie tych zasad.