Nasz serwis internetowy oraz podmioty z nim współpracujące takie jak reklamodawcy, firmy badające rynek, dostawcy usług oraz treści, korzystają z plików Cookies zapisywanych na Twoim urządzeniu w celach identyfikacyjnych, reklamowych oraz statystycznych. Dzięki temu możemy między innymi dostosować wygląd strony do indywidualnych potrzeb użytkowników. W przeglądarce internetowej możesz zmienić ustawienia dotyczące Cookies. Instrukcje zmiany ustawień dla najpopularniejszych przeglądarek znajdziesz tutaj: Chrome, Firefox, Internet Explorer, Opera i Safari. Jeżeli nie wyrażasz zgody na wykorzystywanie przez nas mechanizmu Cookies, wyłącz ich obsługę w ustawieniach swojej przeglądarki.
Więcej informacji możesz znaleźć w Informacje o plikach cookies.
Haszkod.pl - Strona główna
szukaj
| |


Top Gear [Sezon 10] [2007][Lektor PL]

Top Gear [Sezon 10] [2007][Lektor PL]
sprawność: 75%
Zdobądź lepszą rangę,
aby oceniać haszkody.

Pokaż hashcode

Zaloguj się!

Dopiero po utworzeniu konta w serwisie, możliwe jest korzystanie z zawartości.

Rejestracja!
Dodał: D_M
Należy pobrać przez: MailDownloader
Kategoria: Filmy Rozmiar: 7,58 GB
Podkategoria: Sezony Pobrań: 18
Data dodania: 08-07-2018 22:44 Data premiery: 07 października 2007





Kompresja: WinRAR 5+

Hasło pobierania i archiwum: www.haszkod.pl



Opis:
Prowadzący rozmawiają o wszystkim, co jest związane z samochodami, w swoim własnym, często kontrowersyjnym stylu.


Lista odcinków:
01- Top Gear szuka najlepszej drogi na świecie.
02- Własny pomysł na amfibię II: Przeprawa przez kanał La Manche.
03- Luksusowy Lexus sam parkuje w studiu Top Gear • Jeremy jeździ do i po budynku BBC mikrosamochodem Peel P50 • Hammond sprawdza, czy Bugatti Veyron startuje szybciej od myśliwca Eurofighter Typhoon.
04- Wielka Wyprawa Botswana Special: Top Gear przemierza bezdroża Botswany w wartych 1500 funtów samochodach bez napędu na cztery koła. (720p)
05- Hammond w Astonie Martinie kontra człowiek na rolkach z silnikiem odrzutowym na plecach • Jeremy przerażony testowanym samochodem • Metro, samochód, rower albo łódź, czyli najszybszy sposób na podróż przez Londyn.
06- Jeremy sprawdza, czy nowy Civic Type R jest lepszy od starego • May w Alfie 159 kontra facet przechodzący przez ujście rzeki Humber • Hammond, May i inni ścigają się kamperami • Dom na kółkach z garażem na roadstera.
07- Czy w historii British Leyland istniały samochody, które nie były badziewiem?
08- Top Gear szuka najstarszego auta kierowanego tak, jak dzisiejsze samochody • Hammond stara się przejechać okrążenie toru w bolidzie F1 • Jeremy jako pasażer w samo kierującym się BMW.
09- Top Gear startuje w 24-godzinnym wyścigu Britcar w BMW diesel • May w Fiacie 500 ściga się z miłośnikami BMX po ulicach Budapesztu • Nietypowe porównanie samochodów przez Jeremy'ego.
10- Top Gear testuje Niemieckie super-sedany na torze w Hiszpanii • Nagrody Top Gear 2007.




Video
Format : AVI
Duration : 49 min 25 s
Bit rate : 1 466 kb/s
Width : 976 pixels
Height : 524 pixels
Display aspect ratio : 1.85:1
Frame rate : 30.000 FPS
Stream size : 518 MiB (89%)

Audio
Format : Mp2
Bit rate : 160 kb/s
Channel(s) : 2 channels
Stream size : 56.6 MiB (10%)








ostatnia modyfikacja: 08 lipca 2018, 22:45 (//)
Inne podobne haszkody dostępne w serwisie:
NazwaKategoriaSprawnośćRozmiarDodano
Top Gear: Wyprawa marzeń / Top Gear: The Perf..Filmy98%700 MB11-04-2015
Top Gear [Sezon 8] [2006][Lektor PL]Filmy88%2,79 GB07-07-2018
Top Gear [Sezon 9] [2007][Lektor PL]Filmy84%5,07 GB08-07-2018
Top Gear [Sezon 11] [2008][Lektor PL]Filmy75%2,54 GB09-07-2018
Top Gear [Sezon 20] [2013][Lektor PL]Filmy88%3,27 GB16-07-2018
Dodaj komentarz:
Zasady pisania komentarzy w serwisie Haszkod.pl :
  • Zakaz podawania adresów stron o podobnej tematyce.
  • Zakaz wklejania linków do alternatywnej metody ściągnięcia tej samej rzeczy.
  • Zakaz składania próśb o upload, jest do tego specjalny dział.
  • Zakaz wklejania hashcodów w treści komentarzy.
Wypowiedzi w komentarzach powinny być formułowane w sposób uprzejmy, z poszanowaniem innych użytkowników i ich stanowisk.

Autor:
Treść:

+ - | b u i

Możesz jeszcze wpisać: znaków.

Żaden z plików nie znajduje się na serwerze. Hashcody są własnością użytkowników. Administrator serwisu nie może ponieść konsekwencji za to co użytkownicy wstawiają lub za to co czynią na stronie.
Nie możesz używać tego serwisu do rozpowszechniania lub ściągania materiałów do których nie masz odpowiednich praw lub licencji. Użytkownicy odpowiedzialni są za przestrzeganie tych zasad.