Nasz serwis internetowy oraz podmioty z nim współpracujące takie jak reklamodawcy, firmy badające rynek, dostawcy usług oraz treści, korzystają z plików Cookies zapisywanych na Twoim urządzeniu w celach identyfikacyjnych, reklamowych oraz statystycznych. Dzięki temu możemy między innymi dostosować wygląd strony do indywidualnych potrzeb użytkowników. W przeglądarce internetowej możesz zmienić ustawienia dotyczące Cookies. Instrukcje zmiany ustawień dla najpopularniejszych przeglądarek znajdziesz tutaj: Chrome, Firefox, Internet Explorer, Opera i Safari. Jeżeli nie wyrażasz zgody na wykorzystywanie przez nas mechanizmu Cookies, wyłącz ich obsługę w ustawieniach swojej przeglądarki.
Więcej informacji możesz znaleźć w Informacje o plikach cookies.
Haszkod.pl - Strona główna
szukaj
| |


Top Gear [Sezon 11] [2008][Lektor PL]

Top Gear [Sezon 11] [2008][Lektor PL]
sprawność: 75%
Zdobądź lepszą rangę,
aby oceniać haszkody.

Pokaż hashcode

Zaloguj się!

Dopiero po utworzeniu konta w serwisie, możliwe jest korzystanie z zawartości.

Rejestracja!
Dodał: D_M
Należy pobrać przez: MailDownloader
Kategoria: Filmy Rozmiar: 2,54 GB
Podkategoria: Sezony Pobrań: 16
Data dodania: 09-07-2018 01:19 Data premiery: 22 czerwca 2008





Kompresja: WinRAR 5+

Hasło pobierania i archiwum: www.haszkod.pl



Opis:
Prowadzący rozmawiają o wszystkim, co jest związane z samochodami, w swoim własnym, często kontrowersyjnym stylu.


Lista odcinków:
01- Top Gear szuka najlepszego auta dla policji za 1000 funtów • Kaskader Top Gear bije Austinem Allegro rekord skoku na wstecznym • Jeremy (w swoim stylu) szuka najbardziej ekonomicznego samochodu.
02- Hammond w Audi RS6 kontra narciarze w wyścigu we francuskich Alpach • Kaskader Top Gear wywija „korkociąg” w MG Maestro.
03- Top Gear udowadnia, że Alfy Romeo za 1000 funtów mają to coś.
04- Superwyścig: Jeremy w Nissanie GT-R ściga się z japońską koleją Shinkansen na trasie Hakui – Chiba.
05- Jeremy testuje na torze Fuji Nissana GT-R i nadweręża kark • Tron dla człowieka twierdzącego, że fotoradary to złodziejski podatek • Jeremy i James testują stare, klasyczne limuzyny • Jeremy w Daihatsu jako uciekający lis, na którego poluje m.in. Hammond.
06- James ukazuje nietypowe auta z Japonii • W studiu Top Gear prototyp wyczynowej Mazdy • Wielka Brytania kontra Niemcy w bitwie prezenterów motoryzacyjnych.




Video
Format : AVI
Duration : 49 min 54 s
Bit rate : 871 kb/s
Width : 576 pixels
Height : 320 pixels
Display aspect ratio : 16:9
Frame rate : 25.000 FPS
Stream size : 311 MiB (89%)

Audio
Format : Mp3
Bit rate : 96 kb/s
Channel(s) : 2 channels
Stream size : 34.3 MiB (10%)








Inne podobne haszkody dostępne w serwisie:
NazwaKategoriaSprawnośćRozmiarDodano
Top Gear: Wyprawa marzeń / Top Gear: The Perf..Filmy98%700 MB11-04-2015
Top Gear [Sezon 10] [2007][Lektor PL]Filmy75%7,58 GB08-07-2018
Top Gear [Sezon 2] [2002][Lektor PL]Filmy90%3,95 GB04-07-2018
Top Gear [Sezon 12] [2008][Lektor PL]Filmy84%6,40 GB09-07-2018
Top Gear [Sezon 9] [2007][Lektor PL]Filmy84%5,07 GB08-07-2018
Dodaj komentarz:
Zasady pisania komentarzy w serwisie Haszkod.pl :
  • Zakaz podawania adresów stron o podobnej tematyce.
  • Zakaz wklejania linków do alternatywnej metody ściągnięcia tej samej rzeczy.
  • Zakaz składania próśb o upload, jest do tego specjalny dział.
  • Zakaz wklejania hashcodów w treści komentarzy.
Wypowiedzi w komentarzach powinny być formułowane w sposób uprzejmy, z poszanowaniem innych użytkowników i ich stanowisk.

Autor:
Treść:

+ - | b u i

Możesz jeszcze wpisać: znaków.

Żaden z plików nie znajduje się na serwerze. Hashcody są własnością użytkowników. Administrator serwisu nie może ponieść konsekwencji za to co użytkownicy wstawiają lub za to co czynią na stronie.
Nie możesz używać tego serwisu do rozpowszechniania lub ściągania materiałów do których nie masz odpowiednich praw lub licencji. Użytkownicy odpowiedzialni są za przestrzeganie tych zasad.