Nasz serwis internetowy oraz podmioty z nim współpracujące takie jak reklamodawcy, firmy badające rynek, dostawcy usług oraz treści, korzystają z plików Cookies zapisywanych na Twoim urządzeniu w celach identyfikacyjnych, reklamowych oraz statystycznych. Dzięki temu możemy między innymi dostosować wygląd strony do indywidualnych potrzeb użytkowników. W przeglądarce internetowej możesz zmienić ustawienia dotyczące Cookies. Instrukcje zmiany ustawień dla najpopularniejszych przeglądarek znajdziesz tutaj: Chrome, Firefox, Internet Explorer, Opera i Safari. Jeżeli nie wyrażasz zgody na wykorzystywanie przez nas mechanizmu Cookies, wyłącz ich obsługę w ustawieniach swojej przeglądarki.
Więcej informacji możesz znaleźć w Informacje o plikach cookies.
Haszkod.pl - Strona główna
szukaj
| |


Top Gear [Sezon 12] [2008][Lektor PL]

Top Gear [Sezon 12] [2008][Lektor PL]
sprawność: 84%
Zdobądź lepszą rangę,
aby oceniać haszkody.

Pokaż hashcode

Zaloguj się!

Dopiero po utworzeniu konta w serwisie, możliwe jest korzystanie z zawartości.

Rejestracja!
Dodał: D_M
Należy pobrać przez: MailDownloader
Kategoria: Filmy Rozmiar: 6,40 GB
Podkategoria: Sezony Pobrań: 20
Data dodania: 09-07-2018 20:09 Data premiery: 02 listopada 2008





Kompresja: WinRAR 5+

Hasło pobierania i archiwum: www.haszkod.pl



Opis:
Prowadzący rozmawiają o wszystkim, co jest związane z samochodami, w swoim własnym, często kontrowersyjnym stylu.


Lista odcinków:
01- Ciężarówki za £5,000.
02- Podróż Muscle Car przez USA na słoną równinę.
03- Czy Renault Avantime może być szybszy od Mitsubishi Evo X? • May praktykuje jazdę z kierowcą wyścigowym Miką Häkkinenem.
04- Rajd ekonomiczny do Blackpool.
05- Superwyścig: Superszybka łódź motorowa kontra Ferrari Daytona do Saint-Tropez • Zawody autobusów, który jest najlepszy na brytyjskie ulice.
06- Czy komuniści kiedykolwiek zrobili dobre auto? • Nietypowy test drogowy Forda Fiesty.
07- 50 lat serii wyścigowej British Touring Car: pamiętne chwile i wypadki • Test elektrycznej Tesli • Bicie rekordu skoku z przyczepą kempingową programu Fifth Gear.
08- Wielka Wyprawa Vietnam Special – podróż skuterami z południa na północ Wietnamu (720p)




Video
Format : AVI
Duration : 50 min 24 s
Bit rate : 854 kb/s
Width : 640 pixels
Height : 416 pixels
Display aspect ratio : 3:2
Frame rate : 25.000 FPS
Stream size : 308 MiB (88%)

Audio
Format : Mp3
Bit rate : 103 kb/s
Channel(s) : 2 channels
Stream size : 37.2 MiB (11%)








Inne podobne haszkody dostępne w serwisie:
NazwaKategoriaSprawnośćRozmiarDodano
Top Gear: Wyprawa marzeń / Top Gear: The Perf..Filmy98%700 MB11-04-2015
Top Gear [Sezon 8] [2006][Lektor PL]Filmy88%2,79 GB07-07-2018
Top Gear [Sezon 9] [2007][Lektor PL]Filmy84%5,07 GB08-07-2018
Top Gear [Sezon 10] [2007][Lektor PL]Filmy75%7,58 GB08-07-2018
Top Gear [Sezon 11] [2008][Lektor PL]Filmy75%2,54 GB09-07-2018
Dodaj komentarz:
Zasady pisania komentarzy w serwisie Haszkod.pl :
  • Zakaz podawania adresów stron o podobnej tematyce.
  • Zakaz wklejania linków do alternatywnej metody ściągnięcia tej samej rzeczy.
  • Zakaz składania próśb o upload, jest do tego specjalny dział.
  • Zakaz wklejania hashcodów w treści komentarzy.
Wypowiedzi w komentarzach powinny być formułowane w sposób uprzejmy, z poszanowaniem innych użytkowników i ich stanowisk.

Autor:
Treść:

+ - | b u i

Możesz jeszcze wpisać: znaków.

Żaden z plików nie znajduje się na serwerze. Hashcody są własnością użytkowników. Administrator serwisu nie może ponieść konsekwencji za to co użytkownicy wstawiają lub za to co czynią na stronie.
Nie możesz używać tego serwisu do rozpowszechniania lub ściągania materiałów do których nie masz odpowiednich praw lub licencji. Użytkownicy odpowiedzialni są za przestrzeganie tych zasad.