Nasz serwis internetowy oraz podmioty z nim współpracujące takie jak reklamodawcy, firmy badające rynek, dostawcy usług oraz treści, korzystają z plików Cookies zapisywanych na Twoim urządzeniu w celach identyfikacyjnych, reklamowych oraz statystycznych. Dzięki temu możemy między innymi dostosować wygląd strony do indywidualnych potrzeb użytkowników. W przeglądarce internetowej możesz zmienić ustawienia dotyczące Cookies. Instrukcje zmiany ustawień dla najpopularniejszych przeglądarek znajdziesz tutaj: Chrome, Firefox, Internet Explorer, Opera i Safari. Jeżeli nie wyrażasz zgody na wykorzystywanie przez nas mechanizmu Cookies, wyłącz ich obsługę w ustawieniach swojej przeglądarki.
Więcej informacji możesz znaleźć w Informacje o plikach cookies.
Haszkod.pl - Strona główna
szukaj
| |


Wielka Czerwona Jedynka - The Big Red One [DVDRip] [1980][Lektor PL]

Wielka Czerwona Jedynka - The Big Red One [DVDRip] [1980][Lektor PL]
sprawność: 97%
Zdobądź lepszą rangę,
aby oceniać haszkody.

Pokaż hashcode

Zaloguj się!

Dopiero po utworzeniu konta w serwisie, możliwe jest korzystanie z zawartości.

Rejestracja!
Dodał: Ramsy
Należy pobrać przez: MailShare
Kategoria: Filmy Rozmiar: 690 MB
Podkategoria: High Quality Pobrań: 121
Data dodania: 12-02-2013 10:21 Data premiery: 28 maja 1980

>Opis<
gatunek:
Dramat Wojenny
produkcja:
USA
premiera:
28 maja 1980 (świat)
reżyseria:
Samuel Fuller
scenariusz:
Samuel Fuller

Jeden z najlepszych amerykańskich filmów wojennych w historii. "Prawdziwa chwała wojny przetrwała" - mówił S. Fuller. Uhonorowany wieloma odznaczeniami weteran II Wojny Światowej - Fuller, przetrwał. Jego osobista wizja filmowej wersji wojennych doświadczeń, niestety, nie. Aż do teraz. Mając dostęp do prywatnych archiwów Fullera oraz jego notatek, krytyk i filmowiec Richard Schickel podjął się rekonstrukcji, która ceniony i lubiany epos wojenny zmieniła w prawdziwe kinowe arcydzieło.

>Screeny<



>Info<
Format : AVI
Format/Info : Audio Video Interleave
File size : 700 MiB
Duration : 2h 36mn
Overall bit rate mode : Variable
Overall bit rate : 626 Kbps

Video
ID : 0
Format : MPEG-4 Visual
Format profile : Advanced [email protected]
Format settings, BVOP : 1
Format settings, QPel : No
Format settings, GMC : No warppoints
Format settings, Matrix : Default (H.263)
Muxing mode : Packed bitstream
Codec ID : XVID
Codec ID/Hint : XviD
Duration : 2h 36mn
Bit rate : 476 Kbps
Width : 624 pixels
Height : 352 pixels
Display aspect ratio : 16:9
Frame rate : 25.000 fps
Color space : YUV
Chroma subsampling : 4:2:0
Bit depth : 8 bits
Scan type : Progressive
Compression mode : Lossy
Bits/(Pixel*Frame) : 0.087
Stream size : 532 MiB (76%)
Writing library : XviD 1.2.1 (UTC 2008-12-04)

Audio
ID : 1
Format : MPEG Audio
Format version : Version 1
Format profile : Layer 3
Mode : Joint stereo
Mode extension : MS Stereo
Codec ID : 55
Codec ID/Hint : MP3
Duration : 2h 36mn
Bit rate mode : Variable
Bit rate : 138 Kbps
Minimum bit rate : 112 Kbps
Channel(s) : 2 channels
Sampling rate : 44.1 KHz
Compression mode : Lossy
Stream size : 154 MiB (22%)
Alignment : Aligned on interleaves
Interleave, duration : 26 ms (0.65 video frame)
Interleave, preload duration : 138 ms
Writing library : LAME3.98r
Encoding settings : -m j -V 4 -q 0 -lowpass 17.5 --vbr-new -b 112
ostatnia modyfikacja: 12 lutego 2013, 14:50 (Poprawki)
Inne podobne haszkody dostępne w serwisie:
NazwaKategoriaSprawnośćRozmiarDodano
Cienka czerwona linia/The Thin Red Line [DVDR..Filmy99%1,38 GB06-03-2011
Czerwona Wilczyca / Den Roda Vargen / The Red..Filmy97%775 MB05-02-2014
Cienka czerwona linia / The Thin Red Line [10..Filmy95%5,19 GB01-02-2021
Czerwona planeta / Red Planet [DVDRip] [2000]..Filmy96%702 MB08-01-2011
Czerwona gorączka / Red Heat [DVDRip] [1988][..Filmy92%771 MB19-06-2014
Najwyżej ocenionione komentarze:
Komentarze użytkowników:
za ta wstawke wielki browar. :)

0

1 0

13.02.2013
Działa suuuuper

0

1 0

23.02.2013
Wszystko ok

0

1 0

29.12.2013
Dodaj komentarz:
Zasady pisania komentarzy w serwisie Haszkod.pl :
  • Zakaz podawania adresów stron o podobnej tematyce.
  • Zakaz wklejania linków do alternatywnej metody ściągnięcia tej samej rzeczy.
  • Zakaz składania próśb o upload, jest do tego specjalny dział.
  • Zakaz wklejania hashcodów w treści komentarzy.
Wypowiedzi w komentarzach powinny być formułowane w sposób uprzejmy, z poszanowaniem innych użytkowników i ich stanowisk.

Autor:
Treść:

+ - | b u i

Możesz jeszcze wpisać: znaków.

Żaden z plików nie znajduje się na serwerze. Hashcody są własnością użytkowników. Administrator serwisu nie może ponieść konsekwencji za to co użytkownicy wstawiają lub za to co czynią na stronie.
Nie możesz używać tego serwisu do rozpowszechniania lub ściągania materiałów do których nie masz odpowiednich praw lub licencji. Użytkownicy odpowiedzialni są za przestrzeganie tych zasad.