Nasz serwis internetowy oraz podmioty z nim współpracujące takie jak reklamodawcy, firmy badające rynek, dostawcy usług oraz treści, korzystają z plików Cookies zapisywanych na Twoim urządzeniu w celach identyfikacyjnych, reklamowych oraz statystycznych. Dzięki temu możemy między innymi dostosować wygląd strony do indywidualnych potrzeb użytkowników. W przeglądarce internetowej możesz zmienić ustawienia dotyczące Cookies. Instrukcje zmiany ustawień dla najpopularniejszych przeglądarek znajdziesz tutaj: Chrome, Firefox, Internet Explorer, Opera i Safari. Jeżeli nie wyrażasz zgody na wykorzystywanie przez nas mechanizmu Cookies, wyłącz ich obsługę w ustawieniach swojej przeglądarki.
Więcej informacji możesz znaleźć w Informacje o plikach cookies.
Haszkod.pl - Strona główna
szukaj
| |
Haszkod jest możliwy do pobrania za pomocą programu Mailshare.


Wilczy obłęd / Lobos de Arga [BDRip] [2011][Lektor PL]

Wilczy obłęd / Lobos de Arga [BDRip] [2011][Lektor PL]
sprawność: 97%
Zdobądź lepszą rangę,
aby oceniać haszkody.

Pokaż hashcode

Zaloguj się!

Dopiero po utworzeniu konta w serwisie, możliwe jest korzystanie z zawartości.

Rejestracja!
Dodał: WUJAXP
Należy pobrać przez: Ygoow
Kategoria: Filmy Rozmiar: 773 MB
Podkategoria: High Quality Pobrań: 191
Data dodania: 19-11-2012 15:28 Data premiery: 07 października 2011




Początkujący pisarz, Tomás Marino (Gorka Otxoa) postanawia wybrać się do miasteczka, w którym się wychował. Ma on nadzieję, że powrót do korzeni będzie stanowił dla niego źródło inspiracji do napisania drugiej książki. Nie zdaje sobie jednak sprawy z tego, że jego pobyt w miasteczku został już wcześniej zaplanowany. Ma on bowiem położyć kres klątwie, która od stulecia wisiała nad miasteczkiem i jego mieszkańcami...




gatunek: Horror, Komedia
produkcja: Hiszpania
premiera: 7 października 2011 (świat)
reżyseria: Juan Martínez Moreno
scenariusz: Juan Martínez Moreno


General
Complete name : Lobos.De.Arga.2011.PL [AgusiQ]\Lobos.De.Arga.2011.PL.BDRip.XviD-BiDA.avi
Format : AVI
Format/Info : Audio Video Interleave
File size : 702 MiB
Duration : 1h 37mn
Overall bit rate : 1 005 Kbps
Writing library : VirtualDub build 32817/release

Video
ID : 0
Format : MPEG-4 Visual
Format profile : Advanced [email protected]
Format settings, BVOP : 2
Format settings, QPel : No
Format settings, GMC : No warppoints
Format settings, Matrix : Default (H.263)
Muxing mode : Packed bitstream
Codec ID : XVID
Codec ID/Hint : XviD
Duration : 1h 37mn
Bit rate : 868 Kbps
Width : 640 pixels
Height : 272 pixels
Display aspect ratio : 2.35:1
Frame rate : 25.000 fps
Original frame rate : 24.000 fps
Color space : YUV
Chroma subsampling : 4:2:0
Bit depth : 8 bits
Scan type : Progressive
Compression mode : Lossy
Bits/(Pixel*Frame) : 0.199
Stream size : 606 MiB (86%)
Writing library : XviD 1.2.1 (UTC 2008-12-04)

Audio
ID : 1
Format : MPEG Audio
Format version : Version 1
Format profile : Layer 3
Codec ID : 55
Codec ID/Hint : MP3
Duration : 1h 37mn
Bit rate mode : Constant
Bit rate : 128 Kbps
Channel(s) : 2 channels
Sampling rate : 48.0 KHz
Compression mode : Lossy
Stream size : 89.4 MiB (13%)
Alignment : Split accross interleaves
Interleave, duration : 40 ms (1.00 video frame)
Interleave, preload duration : 500 ms























Inne podobne haszkody dostępne w serwisie:
NazwaKategoriaSprawnośćRozmiarDodano
Wilczy Szaniec [PC][2006][Dubbing PL]Gry97%711 MB19-07-2012
Wilczy Gang / Die Wolf-Gäng[720p][BRRip] [202..Filmy88%2,17 GB26-04-2021
Obłęd / The Jacket [DVD-R] [2005][Lektor PL]Filmy89%4,58 GB13-03-2011
Obłęd / The Jacket [NAPISY PL] [DVDRip] [2005..Filmy75%707 MB09-07-2011
Obłęd / The Jacket [DVDRip] [2005][Lektor PL]Filmy98%761 MB23-12-2011
Najwyżej ocenionione komentarze:
Komentarze użytkowników:
Polecam :D dobra komedia

0

1 0

20.11.2012
Wszystko ok dz za wstawke!!pozdro!

0

1 0

04.12.2012
Wszystko ok

0

1 0

04.03.2013
Dodaj komentarz:
Zasady pisania komentarzy w serwisie Haszkod.pl :
  • Zakaz podawania adresów stron o podobnej tematyce.
  • Zakaz wklejania linków do alternatywnej metody ściągnięcia tej samej rzeczy.
  • Zakaz składania próśb o upload, jest do tego specjalny dział.
  • Zakaz wklejania hashcodów w treści komentarzy.
Wypowiedzi w komentarzach powinny być formułowane w sposób uprzejmy, z poszanowaniem innych użytkowników i ich stanowisk.

Autor:
Treść:

+ - | b u i

Możesz jeszcze wpisać: znaków.

Żaden z plików nie znajduje się na serwerze. Hashcody są własnością użytkowników. Administrator serwisu nie może ponieść konsekwencji za to co użytkownicy wstawiają lub za to co czynią na stronie.
Nie możesz używać tego serwisu do rozpowszechniania lub ściągania materiałów do których nie masz odpowiednich praw lub licencji. Użytkownicy odpowiedzialni są za przestrzeganie tych zasad.