Nasz serwis internetowy oraz podmioty z nim współpracujące takie jak reklamodawcy, firmy badające rynek, dostawcy usług oraz treści, korzystają z plików Cookies zapisywanych na Twoim urządzeniu w celach identyfikacyjnych, reklamowych oraz statystycznych. Dzięki temu możemy między innymi dostosować wygląd strony do indywidualnych potrzeb użytkowników. W przeglądarce internetowej możesz zmienić ustawienia dotyczące Cookies. Instrukcje zmiany ustawień dla najpopularniejszych przeglądarek znajdziesz tutaj: Chrome, Firefox, Internet Explorer, Opera i Safari. Jeżeli nie wyrażasz zgody na wykorzystywanie przez nas mechanizmu Cookies, wyłącz ich obsługę w ustawieniach swojej przeglądarki.
Więcej informacji możesz znaleźć w Informacje o plikach cookies.
Haszkod.pl - Strona główna
szukaj
| |
Haszkod jest możliwy do pobrania za pomocą programu Mailshare.


Żona na niby / Just Go With It [BDRip] [2011][ENG]

Żona na niby / Just Go With It [BDRip] [2011][ENG]
sprawność: 96%
Zdobądź lepszą rangę,
aby oceniać haszkody.

Pokaż hashcode

Zaloguj się!

Dopiero po utworzeniu konta w serwisie, możliwe jest korzystanie z zawartości.

Rejestracja!
Dodał: CptAlexMason
Należy pobrać przez: Ygoow
Kategoria: Filmy Rozmiar: 1,53 GB
Podkategoria: High Quality Pobrań: 264
Data dodania: 21-05-2011 14:12 Data premiery: 01 kwietnia 2011



Główny bohater, doktor Patrick Maccabee (Adam Sandler), namawia pewną samotną matkę, aby udawała jego żonę. Ma to pomóc uwieść kobietę jego marzeń?





Upload zawiera 10% Dan Naprawczych


reżyseria: Dennis Dugan
scenariusz: Timothy Dowling, Allan Loeb
premiera: 1 kwietnia 2011 (Polska) 8 lutego 2011 (Świat)
produkcja: USA
gatunek: Komedia rom.






_____----------:::::CD. 1:::::----------_____


Format : AVI
Format/Info : Audio Video Interleave
File size : 700 MiB
Duration : 58mn 32s
Overall bit rate : 1 672 Kbps
Writing application : Nandub v1.0rc2
Writing library : Nandub build 1852/release
segm : 

Video
ID : 0
Format : MPEG-4 Visual
Format profile : Advanced [email protected]
Format settings, BVOP : 2
Format settings, QPel : No
Format settings, GMC : No warppoints
Format settings, Matrix : Default (H.263)
Codec ID : XVID
Codec ID/Hint : XviD
Duration : 58mn 32s
Bit rate : 1 214 Kbps
Width : 624 pixels
Height : 336 pixels
Display aspect ratio : 1.857
Frame rate : 23.976 fps
Color space : YUV
Chroma subsampling : 4:2:0
Bit depth : 8 bits
Scan type : Progressive
Compression mode : Lossy
Bits/(Pixel*Frame) : 0.242
Stream size : 509 MiB (73%)
Writing library : XviD 1.2.1 (UTC 2008-12-04)

Audio
ID : 1
Format : AC-3
Format/Info : Audio Coding 3
Mode extension : CM (complete main)
Codec ID : 2000
Duration : 58mn 32s
Bit rate mode : Constant
Bit rate : 448 Kbps
Channel(s) : 6 channels
Channel positions : Front: L C R, Side: L R, LFE
Sampling rate : 48.0 KHz
Bit depth : 16 bits
Compression mode : Lossy
Stream size : 188 MiB (27%)
Alignment : Split accross interleaves
Interleave, duration : 42 ms (1.00 video frame)
Interleave, preload duration : 500 ms


_____----------:::::CD. 2:::::----------_____


Format : AVI
Format/Info : Audio Video Interleave
File size : 700 MiB
Duration : 57mn 57s
Overall bit rate : 1 688 Kbps
Writing application : Nandub v1.0rc2
Writing library : Nandub build 1852/release

Video
ID : 0
Format : MPEG-4 Visual
Format profile : Advanced [email protected]
Format settings, BVOP : 2
Format settings, QPel : No
Format settings, GMC : No warppoints
Format settings, Matrix : Default (H.263)
Codec ID : XVID
Codec ID/Hint : XviD
Duration : 57mn 57s
Bit rate : 1 231 Kbps
Width : 624 pixels
Height : 336 pixels
Display aspect ratio : 1.857
Frame rate : 23.976 fps
Color space : YUV
Chroma subsampling : 4:2:0
Bit depth : 8 bits
Scan type : Progressive
Compression mode : Lossy
Bits/(Pixel*Frame) : 0.245
Stream size : 510 MiB (73%)
Writing library : XviD 1.2.1 (UTC 2008-12-04)

Audio
ID : 1
Format : AC-3
Format/Info : Audio Coding 3
Mode extension : CM (complete main)
Codec ID : 2000
Duration : 57mn 57s
Bit rate mode : Constant
Bit rate : 448 Kbps
Channel(s) : 6 channels
Channel positions : Front: L C R, Side: L R, LFE
Sampling rate : 48.0 KHz
Bit depth : 16 bits
Compression mode : Lossy
Delay relative to video : 28ms
Stream size : 186 MiB (27%)
Alignment : Split accross interleaves
Interleave, duration : 42 ms (1.00 video frame)






_____----------:::::CD. 1:::::----------_____





_____----------:::::CD. 2:::::----------_____




















ostatnia modyfikacja: 21 maja 2011, 14:13 (zmiana jakości)
Inne podobne haszkody dostępne w serwisie:
NazwaKategoriaSprawnośćRozmiarDodano
Żona na niby / Just Go With It [CAM] [2011][E..Filmy34%1,44 GB14-03-2011
Just Go With It / Żona na niby [CAM] [2011][E..Filmy34%877 MB29-03-2011
Żona na niby/Just Go With It[R5][RMVB] [2011]..Filmy88%380 MB17-04-2011
Żona na niby / Just Go With It [R5] [2011][EN..Filmy95%1,50 GB19-04-2011
Żona na niby / Just Go With It [m720p[MKV] [2..Filmy97%1,92 GB26-05-2011
Najwyżej ocenionione komentarze:
Komentarze użytkowników:
Taaaak, film jest THE BEST :) i jaka obsada :d Jennifer Aniston i........ NICOLE KIDMAN :):):) idzie się pośmiać naprawdę świetny film :D widziałam z napisami, ale czekam na lektora :):):):):) filmik polecam po prostu śmichu warte :):):)

0

1 0

21.05.2011
wszystko dziala filmy fajny :)

0

1 0

25.05.2011
super film. polecam

0

1 0

11.07.2011
Dodaj komentarz:
Zasady pisania komentarzy w serwisie Haszkod.pl :
  • Zakaz podawania adresów stron o podobnej tematyce.
  • Zakaz wklejania linków do alternatywnej metody ściągnięcia tej samej rzeczy.
  • Zakaz składania próśb o upload, jest do tego specjalny dział.
  • Zakaz wklejania hashcodów w treści komentarzy.
Wypowiedzi w komentarzach powinny być formułowane w sposób uprzejmy, z poszanowaniem innych użytkowników i ich stanowisk.

Autor:
Treść:

+ - | b u i

Możesz jeszcze wpisać: znaków.

Żaden z plików nie znajduje się na serwerze. Hashcody są własnością użytkowników. Administrator serwisu nie może ponieść konsekwencji za to co użytkownicy wstawiają lub za to co czynią na stronie.
Nie możesz używać tego serwisu do rozpowszechniania lub ściągania materiałów do których nie masz odpowiednich praw lub licencji. Użytkownicy odpowiedzialni są za przestrzeganie tych zasad.