Nasz serwis internetowy oraz podmioty z nim współpracujące takie jak reklamodawcy, firmy badające rynek, dostawcy usług oraz treści, korzystają z plików Cookies zapisywanych na Twoim urządzeniu w celach identyfikacyjnych, reklamowych oraz statystycznych. Dzięki temu możemy między innymi dostosować wygląd strony do indywidualnych potrzeb użytkowników. W przeglądarce internetowej możesz zmienić ustawienia dotyczące Cookies. Instrukcje zmiany ustawień dla najpopularniejszych przeglądarek znajdziesz tutaj: Chrome, Firefox, Internet Explorer, Opera i Safari. Jeżeli nie wyrażasz zgody na wykorzystywanie przez nas mechanizmu Cookies, wyłącz ich obsługę w ustawieniach swojej przeglądarki.
Więcej informacji możesz znaleźć w Informacje o plikach cookies.
Haszkod.pl - Strona główna
szukaj
| |


Rammstein - Made In Germany - VIDEOS 1995-2012 [3 DVD] [2012]

Rammstein - Made In Germany - VIDEOS 1995-2012 [3 DVD] [2012]

sprawność: 84%
Zdobądź lepszą rangę,
aby oceniać haszkody.

Pokaż hashcode

Zaloguj się!

Dopiero po utworzeniu konta w serwisie, możliwe jest korzystanie z zawartości.

Rejestracja!
Dodał: user333
Należy pobrać przez: MailShare
Kategoria: Muzyka Rozmiar: 12,60 GB
Podkategoria: Teledyski / Koncerty Pobrań: 25
Data dodania: 21-05-2015 12:11 Data premiery: 01 stycznia 2012
****** OPIS ******

Po prawie dekadzie od wydania się pierwszego retrospektywnego DVD zespołu Rammstein „Lichtspielhaus” w 2003r. nareszcie ukazuje się kompletna, zaktualizowana kolekcja teledysków niemieckiej grupy. „Videos 1995 – 2012” zawiera wszystkie dotychczasowe klipy zespołu, a także wyjątkowe materiały „Behind the scenes”, które nierzadko pokazują nie znane do tej pory oblicze Rammsteina. Na wydawnictwie pojawi się ponadto zupełnie nowy teledysk - “Mein Herz Brennt”. Nagranie „Mein Herz Brennt" pochodzi z wydanej w 2001r. płyty „Mutter”, ale teledysk do niego został nakręcony dopiero niedawno. Jest to zdecydowanie jedno z najbardziej wyjątkowych i zarazem najtrudniejszych przedsięwzięć zespołu – prace nad klipem zostały kilkakrotnie przerywane, a w jego powstanie zaangażowana była aż dwójka reżyserów. W efekcie powstała też alternatywna wersja „Mein Herz Brennt" z solowym występem Tilla Lindemanna, tzw. „piano version”.


****** SCREEN ******










****** TRACKLIST ******

Tracklist-DVD.1.


1. DU RIECHST SO GUT - VIDEO [Music Video]
2. DU RIECHST SO GUT - MAKING OF [Behind the Scenes] 9'04
3. SEEMANN - VIDEO [Music Video] 4’15
4. SEEMANN - MAKING OF [Behind the Scenes] 9’04
5. RAMMSTEIN - VIDEO [Music Video] 4’25
6. RAMMSTEIN - MAKING OF [Behind the Scenes] 9’36
7. ENGEL - VIDEO [Music Video] 4’24
8. ENGEL - MAKING OF [Behind the Scenes] 9’10
9. DU HAST - VIDEO [Music Video] 3’54
10. DU HAST - MAKING OF [Behind the Scenes] 15’59
11. DU RIECHST SO GUT [98] - VIDEO [Music Video] 4’24
12. DU RIECHST SO GUT [98] - MAKING OF [Behind the Scenes] 6’55
13. STRIPPED - VIDEO [Music Video] 3’58
14. STRIPPED - MAKING OF [Behind the Scenes] 10’31
15. SONNE - VIDEO [Music Video] 4’06
16. SONNE - MAKING OF [Behind the Scenes] 22’58
17. LINKS 2 3 4 - VIDEO [Music Video] 3’35
18. LINKS 2 3 4 - MAKING OF [Behind the Scenes] 10’18


Tracklist-DVD.2.



1. ICH WILL - VIDEO [Music Video] 4’04
2. ICH WILL - MAKING OF [Behind the Scenes] 19’55
3. MUTTER - VIDEO [Music Video] 3’47
4. MUTTER - MAKING OF [Behind the Scenes] 8’18
5. FEUER FREI! - VIDEO [Music Video] 3’17
6. FEUER FREI! - MAKING OF [Behind the Scenes] 8’13
7. MEIN TEIL - VIDEO [Music Video] 4’24
8. MEIN TEIL - MAKING OF [Behind the Scenes] 30’58
9. AMERIKA - VIDEO [Music Video] 3’41
10. AMERIKA - MAKING OF [Behind the Scenes] 12’01
11. OHNE DICH - VIDEO [Music Video] 5’41
12. OHNE DICH - MAKING OF [Behind the Scenes] 11’20
13. KEINE LUST - VIDEO [Music Video] 5’59
14. KEINE LUST - MAKING OF [Behind the Scenes] 12’24
15. BENZIN - VIDEO [Music Video] 3’30
16. BENZIN - MAKING OF [Behind the Scenes] 14’00


Tracklist-DVD.3.



1. ROSENROT - VIDEO [Music Video] 3’58
2. ROSENROT - MAKING OF [Behind the Scenes] 24’35
3. MANN GEGEN MANN - VIDEO [Music Video] 3’49
4. MANN GEGEN MANN - MAKING OF [Behind the Scenes] 7’18
5. PUSSY - VIDEO [Music Video] 4’03
6. PUSSY - MAKING OF [Behind the Scenes] 19’00
7. ICH TU DIR WEH - VIDEO [Music Video] 4’06
8. ICH TU DIR WEH - MAKING OF [Behind the Scenes] 11’57
9. HAIFISCH - VIDEO [Music Video] 4’31
10. HAIFISCH - MAKING OF [Behind the Scenes] 14’34

****** INFO PLIKU ******

Przykładowe info pliku:

Video
ID : 224 (0xE0)
Format : MPEG Video
Format version : Version 2
Format profile : [email protected]
Format settings, BVOP : Yes
Format settings, Matrix : Default
Format settings, GOP : M=3, N=12
Duration : 9mn 20s
Bit rate : 2 185 Kbps
Width : 720 pixels
Height : 576 pixels
Display aspect ratio : 16:9
Frame rate : 25.000 fps
Standard : PAL
Color space : YUV
Chroma subsampling : 4:2:0
Bit depth : 8 bits
Scan type : Progressive
Compression mode : Lossy
Bits/(Pixel*Frame) : 0.211
Stream size : 146 MiB (89%)
Writing library : TMPGEnc 2.524.63.181
Color primaries : BT.601 PAL
Transfer characteristics : BT.470 System B, BT.470 System G
Matrix coefficients : BT.601

Audio
ID : 189 (0xBD)-128 (0x80)
Format : AC-3
Format/Info : Audio Coding 3
Mode extension : CM (complete main)
Format settings, Endianness : Big
Muxing mode : DVD-Video
Duration : 9mn 20s
Bit rate mode : Constant
Bit rate : 224 Kbps
Channel(s) : 2 channels
Channel positions : Front: L R
Sampling rate : 48.0 KHz
Bit depth : 16 bits
Compression mode : Lossy
Delay relative to video : 79ms
Stream size : 15.0 MiB (9%)


****** DODATKOWE INFO ******

Upload zawiera obraz płyt dvd wykonany programem DVDFab.
Oryginalny rozmiar przekomresowany do 4.300 GB.Format obrazu
to ISO.


ostatnia modyfikacja: 12 listopada 2016, 13:01 (Zmiana okładki. // edited by D_M)
Inne podobne haszkody dostępne w serwisie:
NazwaKategoriaSprawnośćRozmiarDodano
Rammstein-Made in Germany [2011]Muzyka95%265 MB22-04-2012
Rammstein - Rammstein [Deluxe] [2019]Muzyka98%181 MB08-06-2019
Rammstein - Discografia (1995-2005)Muzyka89%228 MB04-11-2009
Metallica: The Videos 1989-2004 [DVD-R] [2006..Muzyka67%7,52 GB14-02-2012
Fala/Welle,die [germany] [DVDRip] [2008]Filmy89%699 MB01-04-2010
Najwyżej ocenionione komentarze:
Komentarze użytkowników:
gość
~gość
A już myślałem, że nieocenzurowane "Pussy" wrzucili na oficjalne DVD. ;) ...ale nie.

0

1 0

29.05.2015
Dodaj komentarz:
Zasady pisania komentarzy w serwisie Haszkod.pl :
  • Zakaz podawania adresów stron o podobnej tematyce.
  • Zakaz wklejania linków do alternatywnej metody ściągnięcia tej samej rzeczy.
  • Zakaz składania próśb o upload, jest do tego specjalny dział.
  • Zakaz wklejania hashcodów w treści komentarzy.
Wypowiedzi w komentarzach powinny być formułowane w sposób uprzejmy, z poszanowaniem innych użytkowników i ich stanowisk.

Autor:
Treść:

+ - | b u i

Możesz jeszcze wpisać: znaków.

Żaden z plików nie znajduje się na serwerze. Hashcody są własnością użytkowników. Administrator serwisu nie może ponieść konsekwencji za to co użytkownicy wstawiają lub za to co czynią na stronie.
Nie możesz używać tego serwisu do rozpowszechniania lub ściągania materiałów do których nie masz odpowiednich praw lub licencji. Użytkownicy odpowiedzialni są za przestrzeganie tych zasad.